Классический форум-трекер
canvas not supported
Нас вместе: 4 094 826

Первобытный страх [Расширенная Версия] / Primal Fear [Extended Cut] (1996) HDRip


 
 
RSS
Начать новую тему   Ответить на тему    Торрент-трекер NNM-Club -> Зарубежное кино -> Зарубежные Фильмы (HD*Rip/LQ, DVDRip, SATRip, VHSRip)
Автор Сообщение
FedExe ®
Uploader 300+
Стаж: 9 лет 8 мес.
Сообщений: 9667
Ratio: 383,855
Поблагодарили: 929717
100%
Откуда: LoX - living off experien
Первобытный страх [Расширенная Версия] / Primal Fear [Extended Cut] (1996) HDRip
«Рано или поздно двуличный человек забывает, кто он на самом деле.»

Русское название: Первобытный страх [Расширенная Версия]
Оригинальное название: Primal Fear [Extended Cut]
Год выпуска: 1996
Жанр: Триллер, Драма, Криминал
Перевод: Многоголосый закадровый
субтитры: нет

Описание фильма:
Страх, ложь и цинизм – основные темы судебной драмы. В убийстве чикагского архиепископа обвиняется молодой парень, который, несмотря на все улики, отрицает свою виновность и убеждает в этом своего адвоката.
Их отношения становятся все более напряженными и запутанными. В ходе судебного процесса сталкиваются бывшие любовники – прокурор Дженет Винейбл и адвокат Мартин Вейл.

Режиссер: Грегори Хоблит / Gregory Hoblit
Актеры: Ричард Гир /Richard Gere/, Лора Линни /Laura Linney/, Эдвард Нортон /Edward Norton/, Джон Махони /John Mahoney/, Фрэнсис МакДорманд /Frances McDormand/, Элфри Вудард /Alfre Woodard/, Терри О'Куин /Terry O'Quinn/, Андре Брогер /Andre Braugher/, Стивен Бауэр /Steven Bauer/, Джо Спано /Joe Spano/, Тони Плана /Tony Plana/, Стенли Андерсон /Stanley Anderson/

Продолжительность: 02:10:27 (оригинал ~02:09:00)

16+

Дата мировой премьеры: 3 апреля 1996
Дата выхода DVD релиза: 10 марта 2010, «Юниверсал Пикчерс Рус»

Видеокодек: Xvid
Битрейт видео: ~664 kbps
Размер кадра: 624x352
Качество видео: HDRip
Аудиокодек: MP3 2.0
Битрейт аудио: 128 kbps
General
Format : AVI
Format/Info : Audio Video Interleave
File size : 747 MiB
Duration : 2h 10mn
Overall bit rate : 801 Kbps
Writing application : VirtualDubMod 1.5.10.2 (build 2540/release)
Writing library : VirtualDubMod build 2540/release

Video
ID : 0
Format : MPEG-4 Visual
Format profile : Advanced Simple@L5
Format settings, BVOP : 1
Format settings, QPel : No
Format settings, GMC : No warppoints
Format settings, Matrix : Custom
Codec ID : XVID
Codec ID/Hint : XviD
Duration : 2h 10mn
Bit rate : 664 Kbps
Width : 624 pixels
Height : 352 pixels
Display aspect ratio : 16:9
Frame rate : 23.976 fps
Color space : YUV
Chroma subsampling : 4:2:0
Bit depth : 8 bits
Scan type : Progressive
Compression mode : Lossy
Bits/(Pixel*Frame) : 0.126
Stream size : 619 MiB (83%)
Writing library : XviD 1.2.1 (UTC 2008-12-04)

Audio
ID : 1
Format : MPEG Audio
Format version : Version 1
Format profile : Layer 3
Codec ID : 55
Codec ID/Hint : MP3
Duration : 2h 10mn
Bit rate mode : Constant
Bit rate : 128 Kbps
Channel(s) : 2 channels
Sampling rate : 48.0 KHz
Compression mode : Lossy
Stream size : 119 MiB (16%)
Alignment : Aligned on interleaves
Interleave, duration : 42 ms (1.00 video frame)
Interleave, preload duration : 504 ms
Writing library : LAME3.97
Encoding settings : -m s -V 4 -q 2 -lowpass 17 -b 128
Расширенная версия была получена путем врезания удаленных и расширенных сцен на свои места.

Скриншоты:



Время раздачи: 24/7 по мере возможности...
[NNM-Club.ru]_[video] Pervobytnyi_strah Extended.avi.torrent
 Торрент: Платиновая раздача  Зарегистрирован
 
Скачать


Примагнититься
 Зарегистрирован:   30 Окт 2012 12:08:11
 Размер:   747 MB  (
 Рейтинг:   4,6 (Голосов: 23)
 Поблагодарили:   66
 Проверка:   Оформление проверено модератором 30 Окт 2012 23:43:17
Как cкачать  ·  Как раздать  ·  Правильно оформить  ·  Поднять ратио!  

_________________

Ну и конечно, данный материал выложен исключительно для ознакомления. После просмотра Вы обязаны удалить все файлы, отформатировать жесткий диск, разбить его молотком, облить кислотой и сжечь остатки в микроволновке.
Показать сообщения:   
Начать новую тему   Ответить на тему    Торрент-трекер NNM-Club -> Зарубежное кино -> Зарубежные Фильмы (HD*Rip/LQ, DVDRip, SATRip, VHSRip) Часовой пояс: GMT + 3
Страница 1 из 1