Классический форум-трекер
canvas not supported
Нас вместе: 4 078 989

У опасности два лица / Danger Has Two Faces (1985) DVD9


 
 
RSS
Начать новую тему   Ответить на тему    Торрент-трекер NNM-Club -> Зарубежное кино -> Азиатское кино (DVD)
Автор Сообщение
Loxaba ®
Стаж: 10 лет 4 мес.
Сообщений: 4
Ratio: 3,676
Поблагодарили: 20
30%
Откуда: Таверна
russia.gif
У опасности два лица / Danger Has Two Faces (1985) DVD9
Русское название: У опасности два лица
Оригинальное название: Danger Has Two Faces
Студия: Shaw Brothers
Год выпуска: 1985
Жанр: Боевик

Описание фильма:
Молодой парень Чжоу заканчивает обучение в полицейской академии в Англии и возвращается в Гонконг,где поступает на службу в полицию.В это же время неизвестный убивает пять человек в метро и Чжоу поручают вести это дело.Молодой полицейский еще не знает,что убийца - его лучший друг Цзинь.Цзинь - бывший полицейский,волей случая уволенный с полиции и сменивший профессию полицейского на профессию киллера...

Режиссер: Алекс Чеун
Актеры: Леунг Ка Ян, Пол Чу, Бак Вань Кам, Лю Лэй Лин, Кирк Вон

Продолжительность: 01:29:56
Перевод: Одноголосый закадровый
Автор перевода: Виктор Береговых
Релиз группа: Таверна
Язык субтитров: Английские, китайские, малайские, индонезийские



Семпл: http://multi-up.com/783890

Видеокодек: MPEG-2
Битрейт видео: ~8300 Кбит/сек
Размер кадра: 720x480
Качество видео: DVD9
Аудиокодек: Russian (Dolby AC3, 2 ch)
Аудиокодек: Chinese (Dolby AC3, 6 ch)
Битрейт аудио: 192 Кбит/сек
Битрейт аудио: 384 Кбит/сек
Общее

Меню

Общее
Полное имя : J:\Леунг Ка Ян\У опасности два лица\У опасности два лица\VTS_01_1.VOB
Формат : MPEG-PS
Размер файла : 1024 Мбайт
Продолжительность : 15 м.
Общий поток : 9059 Кбит/сек

Видео
Идентификатор : 224 (0xE0)
Формат : MPEG Video
Версия формата : Version 2
Профиль формата : Main@Main
Параметр BVOP формата : Да
Параметр матрицы формата : Выборочная
Продолжительность : 15 м.
Битрейт : 8300 Кбит/сек
Ширина : 720 пикселей
Высота : 480 пикселей
Соотношение сторон : 16:9
Частота кадров : 29,970 кадров/сек
Стандарт вещания : NTSC
Цветовое пространство : YUV
Субдискретизация насыщенности : 4:2:0
Битовая глубина : 8 бит
Тип развёртки : Чересстрочная
Порядок развёртки : Верхнее поле первое
Метод сжатия : С потерями
Бит/(Пиксели*Кадры) : 0.801
Размер потока : 938 Мбайт (92%)

Аудио #1
Идентификатор : 189 (0xBD)-128 (0x80)
Формат : AC-3
Формат/Информация : Audio Coding 3
Расширение режима : CM (complete main)
Параметр Endianness формата : Big
Режим смешивания : DVD-Video
Продолжительность : 15 м.
Вид битрейта : Постоянный
Битрейт : 192 Кбит/сек
Каналы : 2 канала
Расположение каналов : Front: L R
Частота : 48,0 КГц
Битовая глубина : 16 бит
Метод сжатия : С потерями
Задержка видео : -66 мс.
Размер потока : 21,7 Мбайт (2%)

Аудио #2
Идентификатор : 189 (0xBD)-129 (0x81)
Формат : AC-3
Формат/Информация : Audio Coding 3
Расширение режима : CM (complete main)
Параметр Endianness формата : Big
Режим смешивания : DVD-Video
Продолжительность : 15 м.
Вид битрейта : Постоянный
Битрейт : 384 Кбит/сек
Каналы : 6 каналов
Расположение каналов : Front: L C R, Side: L R, LFE
Частота : 48,0 КГц
Битовая глубина : 16 бит
Метод сжатия : С потерями
Задержка видео : -66 мс.
Размер потока : 43,4 Мбайт (4%)
Title:
Size: 6.01 Gb ( 6 302 588 KBytes ) - DVD-9
Enabled regions: 1, 2, 3, 4, 5, 6, 7, 8

VTS_01 :
Play Length: 01:29:58
Video: NTSC 16:9 (720x480) VBR, Auto Letterboxed
Audio:
Russian (Dolby AC3, 2 ch)
Chinese (Dolby AC3, 6 ch)
Subtitles:
Chinese
English
Malay
Indonesian

VTS_02 :
Play Length: 00:01:10
Video: NTSC 16:9 (720x480) VBR, Auto Letterboxed
Audio:
Chinese (Dolby AC3, 2 ch)
Chinese (Dolby AC3, 2 ch)
Subtitles:
Chinese
English
English
English

VTS_03 :
Play Length: 00:00:59
Video: NTSC 16:9 (720x480) VBR, Auto Letterboxed
Audio:
Chinese (Dolby AC3, 2 ch)
Subtitles:
Chinese
English
English
English

VTS_04 :
Play Length: 00:01:06
Video: NTSC 16:9 (720x480) VBR, Auto Letterboxed
Audio:
Chinese (Dolby AC3, 2 ch)
Chinese (Dolby AC3, 2 ch)
Subtitles:
Chinese
English
English
English

VTS_05 :
Play Length: 00:01:07
Video: NTSC 16:9 (720x480) VBR, Auto Letterboxed
Audio:
Chinese (Dolby AC3, 2 ch)
Chinese (Dolby AC3, 2 ch)
Subtitles:
Chinese
English
English
English

VTS_06 :
Play Length: 00:00:58
Video: NTSC 16:9 (720x480) VBR, Auto Letterboxed
Audio:
Chinese (Dolby AC3, 2 ch)
Subtitles:
Chinese
English
English
English

VTS_07 :
Play Length: 00:00:11
Video: NTSC 16:9 (720x480) VBR, Auto Letterboxed
Audio:
Not specified (Dolby AC3, 2 ch)

VTS_08 :
Play Length: 00:00:11
Video: NTSC 16:9 (720x480) VBR, Auto Letterboxed
Audio:
Not specified (Dolby AC3, 2 ch)

VTS_09 :
Play Length: 00:00:11
Video: NTSC 16:9 (720x480) VBR, Auto Letterboxed
Audio:
Not specified (Dolby AC3, 2 ch)

VTS_10 :
Play Length: 00:00:33
Video: NTSC 16:9 (720x480) VBR, Auto Letterboxed
Audio:
Not specified (Dolby AC3, 6 ch)
Скриншоты:

Время раздачи: круглосуточно
[NNM-Club.ru]_U opasnosti dva litsa.torrent
 Торрент: Золотая раздача  Зарегистрирован
 
Зарегистрируйтесь и скачайте торрент!
17,3 KB

 Зарегистрирован:   31 Окт 2012 23:10:35
 Размер:   6,01 GB  (
 Рейтинг:    (Голосов: 9)
 Поблагодарили:   20
 Проверка:   Оформление проверено модератором 02 Ноя 2012 10:00:01
Как cкачать  ·  Как раздать  ·  Правильно оформить  ·  Поднять ратио!  
Загрузка...
Показать сообщения:   
Начать новую тему   Ответить на тему    Торрент-трекер NNM-Club -> Зарубежное кино -> Азиатское кино (DVD) Часовой пояс: GMT + 3
Страница 1 из 1