Классический форум-трекер
canvas not supported
Нас вместе: 4 083 489
Платим за отзывы

Сирота из рода Чжао / Zhao shi gu er / Sacrifice (2010) DVDRip [EN / Ch]


 
 
RSS
Начать новую тему   Ответить на тему    Торрент-трекер NNM-Club -> Архив торрентов -> Архив Видео
Автор Сообщение
smaster67 ®
Модератор Видео
Покровитель талантов Uploader 300+
Стаж: 10 лет 5 мес.
Сообщений: 7117
Ratio: 223,716
Поблагодарили: 215513
100%
Сирота из рода Чжао / Zhao shi gu er / Sacrifice (2010) DVDRip [EN / Ch]
Русское название: Сирота из рода Чжао
Оригинальное название: Zhao shi gu er / Sacrifice
Год выпуска: 2010
Жанр: Драма

Описание фильма:
Действие происходит в Китае во времена империи Цинь, в исторический период «Весны и осени». Генерал Тхуан Гу убивает Императора и подставляет семью Чжао, с которой у него давняя вражда. Пользуясь этим, он убивает весь род Чжао (более 300 человек). Единственный выживший — младенец Чжао У, которого спасает врач семьи Чжао — Чан Инг. Вскоре после этого Тхуан Гу принимает родного сына Чанг Инг за Чжао У и убивает его вместе с женой Чанг Инга. Чжао У растет в доме Тхуан Гу, который не подозревает о его происхождении и относится к нему как к сыну, а тот, в свою очередь, тоже относится к нему, как к отцу. Однако Чанг Инг вынашивает план мести и однажды рассказывает Чжао У всю правду…

Режиссер: Чэнь Кайгэ
Актеры: Гэ Ю, Сюэци Ван, Хуан Сяомин, Бинбин Фань

Продолжительность: 02:07:59
Перевод: Отсутствует
Язык: Английский, Китайский



Видеокодек: Xvid
Битрейт видео: ~1 402 Kbps
Размер кадра: 720x306
Качество видео: DVDRip
Audio : MPEG Audio MP3 2 channels 128 Kbps (Английский)
Audio : MPEG Audio MP3 2 channels 128 Kbps (Китайский)
Сэмпл: Ссылка
General
Complete name Sacrifice.avi
Format : AVI
Format/Info : Audio Video Interleave
File size : 1.50 GiB
Duration : 2h 7mn
Overall bit rate : 1 675 Kbps

Video
ID : 0
Format : MPEG-4 Visual
Format profile : Advanced Simple@L5
Format settings, BVOP : 2
Format settings, QPel : No
Format settings, GMC : No warppoints
Format settings, Matrix : Default (H.263)
Muxing mode : Packed bitstream
Codec ID : XVID
Codec ID/Hint : XviD
Duration : 2h 7mn
Bit rate : 1 402 Kbps
Width : 720 pixels
Height : 306 pixels
Display aspect ratio : 2.35:1
Frame rate : 29.970 fps
Color space : YUV
Chroma subsampling : 4:2:0
Bit depth : 8 bits
Scan type : Progressive
Compression mode : Lossy
Bits/(Pixel*Frame) : 0.212
Stream size : 1.25 GiB (84%)
Writing library : XviD 64

Audio #1
ID : 1
Format : MPEG Audio
Format version : Version 1
Format profile : Layer 3
Mode : Joint stereo
Codec ID : 55
Codec ID/Hint : MP3
Duration : 2h 7mn
Source duration : 2h 7mn
Bit rate mode : Constant
Bit rate : 128 Kbps
Channel(s) : 2 channels
Sampling rate : 48.0 KHz
Compression mode : Lossy
Stream size : 117 MiB (8%)
Alignment : Aligned on interleaves
Interleave, duration : 33 ms (1.00 video frame)

Audio #2
ID : 2
Format : MPEG Audio
Format version : Version 1
Format profile : Layer 3
Codec ID : 55
Codec ID/Hint : MP3
Duration : 2h 7mn
Source duration : 2h 7mn
Bit rate mode : Constant
Bit rate : 128 Kbps
Channel(s) : 2 channels
Sampling rate : 48.0 KHz
Compression mode : Lossy
Stream size : 117 MiB (8%)
Alignment : Aligned on interleaves
Interleave, duration : 33 ms (1.00 video frame)
Скриншоты:


Время раздачи: с 13:00 до 23:00
[NNM-Club.ru]_Sacrifice.avi.torrent
 Торрент: Золотая раздача  Зарегистрирован
 
Зарегистрируйтесь и скачайте торрент!
15,1 KB
Free Leech
Примагнититься
 Зарегистрирован:   01 Ноя 2012 01:29:41
 Размер:   1,5 GB  (
 Рейтинг:   3,7 (Голосов: 14)
 Поблагодарили:   51
 Проверка:   Оформление проверено модератором 01 Ноя 2012 13:01:59
Как cкачать  ·  Как раздать  ·  Правильно оформить  ·  Поднять ратио!  
Loading...
aaallleee76
Стаж: 9 лет 5 мес.
Сообщений: 30
Ratio: 3,66
Поблагодарили: 1
100%
Откуда: краснодар
russia.gif
как фильм?
Топик был перенесен из форума Фильмы в оригинале в форум Архив Видео



Исправил релиз - напиши ЛС karfagen1975, дав ссылку на релиз.
Если нет ответа 24 часа - нажми на кнопку "Обратить внимание модераторов".
Показать сообщения:   
Начать новую тему   Ответить на тему    Торрент-трекер NNM-Club -> Архив торрентов -> Архив Видео Часовой пояс: GMT + 3
Страница 1 из 1