Классический форум-трекер
canvas not supported
Нас вместе: 4 093 116

На дороге / On the Road (2012) [H.264/720p-LQ] BDRip [Line]


 
 
RSS
Начать новую тему   Ответить на тему    Торрент-трекер NNM-Club -> Архив торрентов -> Архив Видео
Автор Сообщение
SKVSM ®
Покровитель талантов
Uploader 100+
 
Стаж: 9 лет 4 мес.
Сообщений: 1083
Ratio: 297,765
Поблагодарили: 21431
100%
nnm-club.gif
На дороге / On the Road (2012) [H.264/720p-LQ] BDRip
«Навстречу самому себе»
Русское название: На дороге
Оригинальное название: On the Road
Год выпуска: 2012
Производство: Франция, Великобритания, США, Бразилия / MK2 Productions, American Zoetrope, Jerry Leider Company
Жанр: Драма, Приключения
Перевод: Дублированный [чистый звук]
Субтитры: Отсутствуют
Дата мировой премьеры: 23 мая 2012
Дата российской премьеры: 4 октября 2012, «Другое кино»
Дата выхода DVD релиза: 7 ноября 2012, «Кармен Видео»
Режиссер: Уолтер Саллес
Продюсер: Ребекка Йелдхэм, Шарль Жийибер, Натанаэль Кармиц
Актеры: Стив Бушеми, Гаррет Хедлунд, Сэм Райли, Кристен Стюарт, Эми Адамс, Том Стёрридж, Дэнни Морган, Алиси Брага, Элизабет Мосс, Кирстен Данст, Вигго Мортенсен
Описание фильма:
После смерти отца начинающий нью-йоркский писатель Сэл Парадайз знакомится с молодым и очаровательным Дином Мориарти, только что вышедшим из тюрьмы и женатым на соблазнительной красотке Марилу. Они мгновенно становятся неразлучными друзьями. Стремясь к свободе, Сэл, Дин и Марилу порывают с условностями жизни и отправляются в путешествие навстречу миру, людям и самим себе.

Продолжительность: 02:19:42
Качество видео: BDRip [H.264/720p-LQ]
Видеокодек: MPEG-4 AVC/H.264
Битрейт видео: ~3200 Кбит/с
Размер кадра: 1280 x 544
Аудио:
#1: AC3, 6ch, 448 Кбит/с (Английский)
#2: AC3, 2ch, 192 Кбит/с (Русский)
Сэмпл: Ссылка
General
Unique ID : 225177186123051209911471644165212556678 (0xA9678C6E15189F6FAA58B181085D4D86)
Complete name : D:\On.the.Road.2012.[720p-LQ].BDRip.mkv
Format : Matroska
Format version : Version 2
File size : 3.72 GiB
Duration : 2h 19mn
Overall bit rate : 3 811 Kbps
Encoded date : UTC 2012-11-01 01:07:24
Writing application : mkvmerge v3.3.0 ('Language') built on Mar 24 2010 14:59:24
Writing library : libebml v0.8.0 + libmatroska v0.9.0

Video
ID : 1
Format : AVC
Format/Info : Advanced Video Codec
Format profile : Main@L3.1
Format settings, CABAC : Yes
Format settings, ReFrames : 2 frames
Codec ID : V_MPEG4/ISO/AVC
Duration : 2h 19mn
Bit rate : 3 200 Kbps
Width : 1 280 pixels
Height : 544 pixels
Display aspect ratio : 2.35:1
Frame rate mode : Variable / Variable
Frame rate : 23.976 fps
Color space : YUV
Chroma subsampling : 4:2:0
Bit depth : 8 bits
Scan type : Progressive
Bits/(Pixel*Frame) : 0.192
Stream size : 3.02 GiB (81%)
Writing library : x264 core 112 r1834 a51816a
Encoding settings : cabac=1 / ref=1 / deblock=1:0:0 / analyse=0x1:0 / me=dia / subme=2 / psy=1 / psy_rd=0.00:0.00 / mixed_ref=0 / me_range=16 / chroma_me=1 / trellis=0 / 8x8dct=0 / cqm=0 / deadzone=21,11 / fast_pskip=1 / chroma_qp_offset=0 / threads=4 / sliced_threads=0 / nr=0 / decimate=1 / interlaced=0 / constrained_intra=0 / bframes=3 / b_pyramid=0 / b_adapt=1 / b_bias=0 / direct=3 / weightb=0 / open_gop=0 / weightp=2 / keyint=250 / keyint_min=25 / scenecut=40 / intra_refresh=0 / rc_lookahead=40 / rc=abr / mbtree=1 / bitrate=3200 / ratetol=1.0 / qcomp=0.60 / qpmin=10 / qpmax=51 / qpstep=4 / ip_ratio=1.41 / aq=1:1.00
Default : Yes
Forced : No

Audio #1
ID : 2
Format : AC-3
Format/Info : Audio Coding 3
Mode extension : CM (complete main)
Format settings, Endianness : Big
Codec ID : A_AC3
Duration : 2h 19mn
Bit rate mode : Constant
Bit rate : 448 Kbps
Channel(s) : 6 channels
Channel positions : Front: L C R, Side: L R, LFE
Sampling rate : 48.0 KHz
Bit depth : 16 bits
Compression mode : Lossy
Stream size : 448 MiB (12%)
Title : on.the.road.2012.720p.bluray.x264-psychd
Language : English
Default : No
Forced : No

Audio #2
ID : 5
Format : AC-3
Format/Info : Audio Coding 3
Mode extension : CM (complete main)
Format settings, Endianness : Big
Codec ID : A_AC3
Duration : 2h 19mn
Bit rate mode : Constant
Bit rate : 192 Kbps
Channel(s) : 2 channels
Channel positions : Front: L R
Sampling rate : 48.0 KHz
Bit depth : 16 bits
Compression mode : Lossy
Stream size : 192 MiB (5%)
Default : Yes
Forced : No
Скриншоты:






Время раздачи: 24/7
[NNM-Club.ru]_On.the.Road.2012.[720p-LQ].BDRip.mkv.torrent
 Торрент: Платиновая раздача  Зарегистрирован
 
Скачать


Примагнититься
 Зарегистрирован:   01 Ноя 2012 04:34:04
 Размер:   3,72 GB  (
 Рейтинг:   4,7 (Голосов: 27)
 Поблагодарили:   130
 Проверка:   Оформление проверено модератором 01 Ноя 2012 11:36:22
Как cкачать  ·  Как раздать  ·  Правильно оформить  ·  Поднять ратио!  
SKVSM ®
Покровитель талантов
Uploader 100+
 
Стаж: 9 лет 4 мес.
Сообщений: 1083
Ratio: 297,765
Поблагодарили: 21431
100%
nnm-club.gif
На дороге / On the Road (2012) [720p] BDRip [Line]
esperanto
Стаж: 12 лет 10 мес.
Сообщений: 191
Ratio: 1,919
30.67%
ukraine.gif
не понял, а кто из них обещанная красотка???
pittoha
Стаж: 12 лет 7 мес.
Сообщений: 51
Ratio: 34,21
100%
Откуда: Питер
russia.gif
esperanto писал(а): Перейти к сообщению
не понял, а кто из них обещанная красотка???

Вигго Мортенсен , если вы понимаете :D
Топик был перенесен из форума Зарубежные Новинки (HD*Rip/LQ, DVDRip) в форум Архив Видео


Lelya_K
Показать сообщения:   
Начать новую тему   Ответить на тему    Торрент-трекер NNM-Club -> Архив торрентов -> Архив Видео Часовой пояс: GMT + 3
Страница 1 из 1