Классический форум-трекер
canvas not supported
Нас вместе: 4 093 331

На дороге / On the Road (2012) [720p] BDRip <Line>


 
 
RSS
Начать новую тему   Ответить на тему    Торрент-трекер NNM-Club -> Архив торрентов -> Архив Видео
Автор Сообщение
SKVSM ®
Покровитель талантов
Uploader 100+
 
Стаж: 9 лет 4 мес.
Сообщений: 1083
Ratio: 297,799
Поблагодарили: 21431
100%
nnm-club.gif
На дороге / On the Road (2012) [720p] BDRip
«Навстречу самому себе»
Русское название: На дороге
Оригинальное название: On the Road
Год выпуска: 2012
Производство: Франция, Великобритания, США, Бразилия / MK2 Productions, American Zoetrope, Jerry Leider Company
Жанр: Драма, Приключения
Перевод: Дублированный [чистый звук]

Субтитры: Английские, французские
Дата мировой премьеры: 23 мая 2012
Дата российской премьеры: 4 октября 2012, «Другое кино»
Дата выхода DVD релиза: 7 ноября 2012, «Кармен Видео»
Режиссер: Уолтер Саллес
Продюсер: Ребекка Йелдхэм, Шарль Жийибер, Натанаэль Кармиц
Актеры: Стив Бушеми, Гаррет Хедлунд, Сэм Райли, Кристен Стюарт, Эми Адамс, Том Стёрридж, Дэнни Морган, Алиси Брага, Элизабет Мосс, Кирстен Данст, Вигго Мортенсен
Описание фильма:
После смерти отца начинающий нью-йоркский писатель Сэл Парадайз знакомится с молодым и очаровательным Дином Мориарти, только что вышедшим из тюрьмы и женатым на соблазнительной красотке Марилу. Они мгновенно становятся неразлучными друзьями. Стремясь к свободе, Сэл, Дин и Марилу порывают с условностями жизни и отправляются в путешествие навстречу миру, людям и самим себе.

Продолжительность: 02:19:42
Качество видео: BDRip 720p
Видеокодек: MPEG-4 AVC/H.264
Битрейт видео: ~ 7502 Кбит/с
Размер кадра: 1280 x 546
Аудио:
#1: AC3, 2ch, 192 Кбит/с (Русский)
#2: AC3, 6ch, 640 Кбит/с (Английский)
Сэмпл: Ссылка
General
Unique ID : 239403790063138335641014941432170236349 (0xB41B7E28AE47355F9D64FB911BB549BD)
Complete name : Na.doroge.2012.D.BDRip.720p.IRONCLUB.mkv
Format : Matroska
Format version : Version 2
File size : 8.13 GiB
Duration : 2h 19mn
Overall bit rate : 8 334 Kbps
Movie name : IRONCLUB
Encoded date : UTC 2012-10-31 16:56:28
Writing application : mkvmerge v4.9.1 ('Ich will') built on Jul 11 2011 23:53:15
Writing library : libebml v1.2.1 + libmatroska v1.1.1

Video
ID : 1
Format : AVC
Format/Info : Advanced Video Codec
Format profile : High@L4.1
Format settings, CABAC : Yes
Format settings, ReFrames : 11 frames
Codec ID : V_MPEG4/ISO/AVC
Duration : 2h 19mn
Bit rate : 7 502 Kbps
Width : 1 280 pixels
Height : 546 pixels
Display aspect ratio : 2.35:1
Frame rate : 24.000 fps
Color space : YUV
Chroma subsampling : 4:2:0
Bit depth : 8 bits
Scan type : Progressive
Bits/(Pixel*Frame) : 0.447
Stream size : 7.16 GiB (88%)
Title : On.the.Road.2012.720p.BluRay.DD5.1.x264-HiDt
Writing library : x264 core 128 r2216 198a7ea
Encoding settings : cabac=1 / ref=11 / deblock=1:-3:-3 / analyse=0x3:0x113 / me=umh / subme=11 / psy=1 / psy_rd=0.98:0.00 / mixed_ref=1 / me_range=64 / chroma_me=1 / trellis=2 / 8x8dct=1 / cqm=0 / deadzone=21,11 / fast_pskip=0 / chroma_qp_offset=-2 / threads=12 / lookahead_threads=2 / sliced_threads=0 / nr=0 / decimate=1 / interlaced=0 / bluray_compat=0 / constrained_intra=0 / bframes=7 / b_pyramid=2 / b_adapt=2 / b_bias=0 / direct=3 / weightb=1 / open_gop=0 / weightp=2 / keyint=240 / keyint_min=24 / scenecut=40 / intra_refresh=0 / rc_lookahead=120 / rc=2pass / mbtree=1 / bitrate=7502 / ratetol=1.0 / qcomp=0.68 / qpmin=0 / qpmax=69 / qpstep=4 / cplxblur=20.0 / qblur=0.5 / ip_ratio=1.40 / aq=1:0.75
Language : English
Default : Yes
Forced : Yes

Audio #1
ID : 2
Format : AC-3
Format/Info : Audio Coding 3
Mode extension : CM (complete main)
Format settings, Endianness : Big
Codec ID : A_AC3
Duration : 2h 19mn
Bit rate mode : Constant
Bit rate : 192 Kbps
Channel(s) : 2 channels
Channel positions : Front: L R
Sampling rate : 48.0 KHz
Bit depth : 16 bits
Compression mode : Lossy
Stream size : 192 MiB (2%)
Title : DD 2.0 @ 192 kbps - Dub
Language : Russian
Default : Yes
Forced : Yes

Audio #2
ID : 3
Format : AC-3
Format/Info : Audio Coding 3
Mode extension : CM (complete main)
Format settings, Endianness : Big
Codec ID : A_AC3
Duration : 2h 19mn
Bit rate mode : Constant
Bit rate : 640 Kbps
Channel(s) : 6 channels
Channel positions : Front: L C R, Side: L R, LFE
Sampling rate : 48.0 KHz
Bit depth : 16 bits
Compression mode : Lossy
Stream size : 640 MiB (8%)
Title : DD 5.1 @ 640 kbps
Language : English
Default : No
Forced : No

Text #1
ID : 4
Format : UTF-8
Codec ID : S_TEXT/UTF8
Codec ID/Info : UTF-8 Plain Text
Language : English
Default : No
Forced : No

Text #2
ID : 5
Format : UTF-8
Codec ID : S_TEXT/UTF8
Codec ID/Info : UTF-8 Plain Text
Language : French
Default : No
Forced : No

Menu
00:00:00.000 : en:Chapter 01
00:12:04.083 : en:Chapter 02
00:22:17.833 : en:Chapter 03
00:32:01.166 : en:Chapter 04
00:44:21.958 : en:Chapter 05
00:56:19.250 : en:Chapter 06
01:04:28.791 : en:Chapter 07
01:14:48.125 : en:Chapter 08
01:28:41.416 : en:Chapter 09
01:39:58.416 : en:Chapter 10
01:51:41.500 : en:Chapter 11
02:04:02.583 : en:Chapter 12
Скриншоты:






Время раздачи: 24/7
[NNM-Club.ru]_Na.doroge.2012.D.BDRip.720p.IRONCLUB.mkv.torrent
 Торрент: Золотая раздача  Зарегистрирован
 
Зарегистрируйтесь и скачайте торрент!
20,6 KB

 Зарегистрирован:   01 Ноя 2012 16:30:29
 Размер:   8,13 GB  (
 Рейтинг:   4,4 (Голосов: 17)
 Поблагодарили:   60
 Проверка:   Оформление проверено модератором 01 Ноя 2012 20:52:15
Как cкачать  ·  Как раздать  ·  Правильно оформить  ·  Поднять ратио!  
SKVSM ®
Покровитель талантов
Uploader 100+
 
Стаж: 9 лет 4 мес.
Сообщений: 1083
Ratio: 297,799
Поблагодарили: 21431
100%
nnm-club.gif
На дороге / On the Road (2012) [H.264/720p-LQ] BDRip [Line]
bravo812
Стаж: 10 лет 1 мес.
Сообщений: 269
Ratio: 2,387
100%
ussr.gif
Фильм - чернуха
-1
Топик был перенесен из форума Зарубежные Фильмы (HD) в форум Архив Видео


Che13
Показать сообщения:   
Начать новую тему   Ответить на тему    Торрент-трекер NNM-Club -> Архив торрентов -> Архив Видео Часовой пояс: GMT + 3
Страница 1 из 1