Классический форум-трекер
canvas not supported
Нас вместе: 4 079 215

Инна Маликова и Новые Самоцветы - Сердце не камень (2012) [1080p] HDTVRip


 
 
RSS
Начать новую тему   Ответить на тему    Торрент-трекер NNM-Club -> Архив торрентов -> Архив Музыкального Видео
Автор Сообщение
ab5144 ®
Стаж: 8 лет 7 мес.
Сообщений: 2693
Ratio: 101,287
Поблагодарили: 263960
100%
Инна Маликова и Новые Самоцветы - Сердце не камень (2012) [1080p] HDTVRip
Русское название: Инна Маликова и Новые Самоцветы - Сердце не камень
Год выпуска: 2012
Жанр: Музыкальное видео, клип

Описание фильма:
Инна Маликова и Новые Самоцветы - Сердце не камень

Продолжительность: 00:03:56

Видеокодек: MPEG-4 AVC/H.264
Битрейт видео: ~3422 kbps avg, 0.066 bit/pixel
Размер кадра: 1920x1080 (16:9), 25,0 fps
Качество видео: HDTVRip
Аудиокодек: AAC, 2 ch
Битрейт аудио: 192.00 kbps avg, 44,1 kHz
Код:
Общее
Полное имя                               : Инна Маликова и Новые Самоцветы - Сердце не камень.mp4
Формат                                   : MPEG-4
Профиль формата                          : Base Media / Version 2
Идентификатор кодека                     : mp42
Размер файла                             : 102 Мбайт
Продолжительность                        : 3 м. 56 с.
Режим общего битрейта                    : Переменный
Общий поток                              : 3617 Кбит/сек

Видео
Идентификатор                            : 1
Формат                                   : AVC
Формат/Информация                        : Advanced Video Codec
Профиль формата                          : High@L4.0
Параметр CABAC формата                   : Да
Параметр ReFrames формата                : 1 кадр
Идентификатор кодека                     : avc1
Идентификатор кодека/Информация          : Advanced Video Coding
Продолжительность                        : 3 м. 56 с.
Битрейт                                  : 3422 Кбит/сек
Максимальный битрейт                     : 9473 Кбит/сек
Ширина                                   : 1920 пикселей
Высота                                   : 1080 пикселей
Соотношение сторон                       : 16:9
Режим частоты кадров                     : Постоянный
Частота кадров                           : 25,000 кадров/сек
Цветовое пространство                    : YUV
Субдискретизация насыщенности            : 4:2:0
Битовая глубина                          : 8 бит
Тип развёртки                            : Прогрессивная
Бит/(Пиксели*Кадры)                      : 0.066
Размер потока                            : 96,4 Мбайт (95%)
Дата пометки                             : UTC 2012-10-28 07:26:21

Аудио
Идентификатор                            : 2
Формат                                   : AAC
Формат/Информация                        : Advanced Audio Codec
Профиль формата                          : LC
Идентификатор кодека                     : 40
Продолжительность                        : 3 м. 56 с.
Вид битрейта                             : Переменный
Битрейт                                  : 192 Кбит/сек
Максимальный битрейт                     : 202 Кбит/сек
Каналы                                   : 2 канала
Расположение каналов                     : Front: L R
Частота                                  : 44,1 КГц
Метод сжатия                             : С потерями
Размер потока                            : 5,41 Мбайт (5%)
Заголовок                                : IsoMedia File Produced by Google, 5-11-2011
Дата кодирования                         : UTC 2012-10-28 07:26:21
Дата пометки                             : UTC 2012-10-28 07:26:21
Скриншоты:


Время раздачи: 24/7 до 5 скачавших
[NNM-Club.ru]_Inna Malikova i Novyie Samotsvetyi - Serdtse ne kamen'-1.mp4.torrent
 Торрент: Платиновая раздача  Зарегистрирован
 
Скачать


Примагнититься
 Зарегистрирован:   02 Ноя 2012 20:21:15
 Размер:   102 MB  (
 Рейтинг:   3,8 (Голосов: 12)
 Поблагодарили:   35
 Проверка:   Оформление проверено модератором 03 Ноя 2012 01:07:48
Как cкачать  ·  Как раздать  ·  Правильно оформить  ·  Поднять ратио!  
Топик был перенесен из форума Музыкальные клипы в форум Архив Музыкального Видео

Причина переноса: Раздающего не было более месяца.
Robert Ingil
Показать сообщения:   
Начать новую тему   Ответить на тему    Торрент-трекер NNM-Club -> Архив торрентов -> Архив Музыкального Видео Часовой пояс: GMT + 3
Страница 1 из 1