Классический форум-трекер
canvas not supported
Нас вместе: 4 093 496

Формула 1. Гран-При Абу-Даби. Квалификация. (2012) SATRip


 
 
RSS
Начать новую тему   Ответить на тему    Торрент-трекер NNM-Club -> Архив торрентов -> Архив Документалистики и TV
Автор Сообщение
SKVSM ®
Покровитель талантов
Uploader 100+
 
Стаж: 9 лет 4 мес.
Сообщений: 1083
Ratio: 297,797
Поблагодарили: 21431
100%
nnm-club.gif
Формула 1. Гран-При Абу-Даби. Квалификация.(2012) SATRip
Название: Формула 1. Гран-При Индии. Квалификация
Режиссер / Телекомпания: Россия,
Год выпуска: 2012
Жанр: Спорт, авто
Комментатор: Алексей Попов, Наталья Фабричнова

Описание:
Гран-при Абу-Даби — один из этапов чемпионата Мира по автогонкам в классе Формула-1, первая гонка на трассе, построенной на искусственном острове Яс прошла в сезоне 2009 года, 1 ноября. Этап стал последним, 17-м в календаре.Распространено заблуждение, что название «Гран-при Абу-Даби» происходит от названия города Абу-Даби, поблизости от которого находится трасса. На самом деле Гран-при Абу-Даби проводится на острове Яс, в нескольких километрах от столицы ОАЭ. Название же гран-при происходит от эмирата Абу-Даби, входящего в состав федеративного государства Объединённые Арабские Эмираты. Остров Яс не является частью города Абу-Даби, но является частью территории этого эмирата.

Продолжительность: 01:03:30

Видеокодек: Xvid
Битрейт видео: 1628 Кбит/с
Размер кадра: 704 x 448
Качество видео: SATRip
Аудиокодек: MP3, 2 ch
Битрейт аудио: 128 Кбит/с

Код:

General
Complete name                            : G:\Formula1_2012_18of20_UAE_Qual.avi
Format                                   : AVI
Format/Info                              : Audio Video Interleave
File size                                : 835 MiB
Duration                                 : 1h 3mn
Overall bit rate                         : 1 837 Kbps
Writing library                          : Boilsoft AVI tool build 1/release

Video
ID                                       : 0
Format                                   : MPEG-4 Visual
Format profile                           : Advanced Simple@L5
Format settings, BVOP                    : 2
Format settings, QPel                    : No
Format settings, GMC                     : No warppoints
Format settings, Matrix                  : Default (MPEG)
Codec ID                                 : XVID
Codec ID/Hint                            : XviD
Duration                                 : 1h 3mn
Bit rate                                 : 1 628 Kbps
Width                                    : 704 pixels
Height                                   : 448 pixels
Display aspect ratio                     : 1.571
Frame rate                               : 25.000 fps
Color space                              : YUV
Chroma subsampling                       : 4:2:0
Bit depth                                : 8 bits
Scan type                                : Progressive
Compression mode                         : Lossy
Bits/(Pixel*Frame)                       : 0.206
Stream size                              : 739 MiB (89%)
Writing library                          : XviD 1.2.1 (UTC 2008-12-04)

Audio
ID                                       : 1
Format                                   : MPEG Audio
Format version                           : Version 1
Format profile                           : Layer 3
Mode                                     : Joint stereo
Mode extension                           : MS Stereo
Codec ID                                 : 55
Codec ID/Hint                            : MP3
Duration                                 : 1h 3mn
Bit rate mode                            : Constant
Bit rate                                 : 128 Kbps
Channel(s)                               : 2 channels
Sampling rate                            : 48.0 KHz
Compression mode                         : Lossy
Stream size                              : 58.1 MiB (7%)
Alignment                                : Split accross interleaves


Скриншоты:




Формула 1 на NoNaMe Club

Время раздачи: 24/7 Круглосуточно до 5 скачавших.
[NNM-Club.ru]_Formula1_2012_18of20_UAE_Qual.avi.torrent
 Торрент: Золотая раздача  Зарегистрирован
 
Зарегистрируйтесь и скачайте торрент!
16,6 KB

Примагнититься
 Зарегистрирован:   03 Ноя 2012 17:43:57
 Размер:   835 MB  (
 Рейтинг:   4,8 (Голосов: 36)
 Поблагодарили:   150
 Проверка:   Оформление проверено модератором 03 Ноя 2012 17:48:13
Как cкачать  ·  Как раздать  ·  Правильно оформить  ·  Поднять ратио!  
vavill
Стаж: 8 лет 10 мес.
Сообщений: 21
Ratio: 4,689
100%
Спасибо!Жду не дождусь гонку!
zaldiar
Стаж: 10 лет 3 мес.
Сообщений: 9
Ratio: 0,999
100%
спорт1? а на скриншотах россия2 вроде
Топик был перенесен из форума Формула 1 в форум Архив Документалистики и TV

Причина переноса: Отсутствие сида более месяца

Исправил релиз - напиши ЛС Microsoft SQL, дав ссылку на релиз.
Если нет ответа 24 часа - нажми на кнопку "Обратить внимание модераторов".
Показать сообщения:   
Начать новую тему   Ответить на тему    Торрент-трекер NNM-Club -> Архив торрентов -> Архив Документалистики и TV Часовой пояс: GMT + 3
Страница 1 из 1