Классический форум-трекер
canvas not supported
Нас вместе: 4 121 470

Аэроград (1935) TVRip


 
 
RSS
Начать новую тему   Ответить на тему    Торрент-трекер NNM-Club -> Классика кино и Старые фильмы до 90-х -> Старые Отечественные Фильмы (HD*Rip/LQ, DVDRip, SATRip, VHSRip)
Автор Сообщение
futura3000 ®
Uploader 100+
Стаж: 12 лет 10 мес.
Сообщений: 5679
Ratio: 328,447
Поблагодарили: 21079
100%
Аэроград (1935) TVRip
Производство: СССР, Государственное Управление Кинематографии и фотографии (ГУКФ), Мосфильм, Украинфильм
Жанр: Драма

Режиссер: Александр Довженко, Юлия Солнцева (Пересветова)
Актеры: Степан Шагайда, Сергей Столяров, Степан Шкурат, Г. Цой, Николай Табунасов, Леонид Кан, И. Ким, Борис Добронравов, Евгения Мельникова

Описание:
Начало 30-х годов. Дальний Восток. В молодой Советской республике задумано строительство аэрограда на берегу Тихого океана, у восточных границ страны. Местные жители разделились на два лагеря: в числе активных сторонников — комсомольцы, колхозники, герои гражданской войны, а в стане ярых противников — кулаки, белогвардейские недобитки, диверсанты. Разгорается ожесточенная борьба. Но финальную точку ставят сторонники социализма. В центре фильма - борьба сибиряков против диверсантов-самураев, пытающихся сорвать строительство форпоста у восточных границ СССР.


Возраст: 6+ (зрителям, достигшим 6 лет)

Продолжительность: 01:16:59
Качество видео: TVRip
Язык: русский

Видео: DivX, 512x384, ~1170 Kbps
Аудио: MP3, 1 ch, 96 Kbps
Общее
Полное имя : aerograd.avi
Формат : AVI
Формат/Информация : Audio Video Interleave
Размер файла : 701 Мбайт
Продолжительность : 1 ч. 16 м.
Общий поток : 1273 Кбит/сек
Название фильма : Aerograd
Режиссёр : Mosfil'm, Ukrainfil'm
Дата записи : 1935
Программа кодирования : VirtualDubMod 1.5.10.1 (build 2366/release)
Библиотека кодирования : VirtualDubMod build 2366/release
Примечание : TVrip by Turtle @ XviDClub / DivX Pro 5.0.3 @ 0,238 bpp / Lame MP3 44,1 kHz Mono @ 96 kbps

Видео
Идентификатор : 0
Формат : MPEG-4 Visual
Настройки формата : BVOP1
Параметр BVOP формата : 1
Параметр QPel формата : Нет
Параметр GMC формата : Без точки перехода
Параметр матрицы формата : Default (H.263)
Режим смешивания : Сжатый битовый поток
Идентификатор кодека : DX50
Идентификатор кодека/Подсказка : DivX 5
Продолжительность : 1 ч. 16 м.
Битрейт : 1168 Кбит/сек
Номинальный битрейт : 4000 Кбит/сек
Ширина : 512 пикселей
Высота : 384 пикселя
Соотношение сторон : 4:3
Частота кадров : 25,000 кадров/сек
Цветовое пространство : YUV
Субдискретизация насыщенности : 4:2:0
Битовая глубина : 8 бит
Тип развёртки : Прогрессивная
Метод сжатия : С потерями
Бит/(Пиксели*Кадры) : 0.238
Размер потока : 643 Мбайт (92%)
Библиотека кодирования : DivX 5.0.3 (UTC 2003-01-24)

Аудио
Идентификатор : 1
Формат : MPEG Audio
Версия формата : Version 1
Профиль формата : Layer 3
Идентификатор кодека : 55
Идентификатор кодека/Подсказка : MP3
Продолжительность : 1 ч. 16 м.
Вид битрейта : Постоянный
Битрейт : 96,0 Кбит/сек
Каналы : 1 канал
Частота : 44,1 КГц
Метод сжатия : С потерями
Размер потока : 52,9 Мбайт (8%)
Выравнивание : Разделение по промежуткам
Продолжительность промежутка : 40 мс. (0,99 видеокадр)
Время предзагрузки промежутка : 500 мс.
Скриншоты:


Все одноименные релизы в Клубе

Время раздачи: 24/7
[NNMClub.to]_aerograd.avi.torrent
 Торрент: Платиновая раздача  Зарегистрирован
 
Скачать


Примагнититься
 Зарегистрирован:   12 Сен 2019 17:18:45
 Размер:   701 MB  (
 Рейтинг:   4,9 (Голосов: 36)
 Поблагодарили:   135
 Проверка:   Оформление проверено модератором 12 Сен 2019 17:20:53
Как cкачать  ·  Как раздать  ·  Правильно оформить  ·  Поднять ратио!  
Ночной Сторож
Стаж: 13 лет 1 мес.
Сообщений: 33
Ratio: 13,196
Поблагодарили: 174
50%
Откуда: Москва
russia.gif
Смотрю.
ПлАчу.

Северный пушной зверь. :)

"Эскадры китов" - это формулировка!!!!

Поведение всех персонажей - какое-то просто убойное.
Логики - никакой абсолютно.
Всё шиворот-навыворот.

Добавлено спустя 9 минут 42 секунды:

Особенно восхищает то, как МЕДЛЕННО, НЕ ТОРОПЯСЬ переступающий по лесу русский таёжный охотник догоняет ДВОИХ быстро бегущих в разные стороны японских диверсантов-самураев. Ещё и успевает за это время найти и закопать в тайге в тайнике брошеный ими динамит. :)

"Побегал я за вами 8 трудодней и вижу, что не даром!"

Добавлено спустя 3 минуты 57 секунд:

Ах, как там самурай точит катану на точиле. :)
Ах, какие там староверы-сектанты!!!!!

_________________
уведена аська. 55319926 - невалиден. новый номер - 383091334
futura3000 ®
Uploader 100+
Стаж: 12 лет 10 мес.
Сообщений: 5679
Ratio: 328,447
Поблагодарили: 21079
100%
Ночной Сторож

Лени Рифеншталь нервно курит по сравнению с Александром Довженко

Есть еще "Земля" Довженко... Будет время выложу
futura3000 ®
Uploader 100+
Стаж: 12 лет 10 мес.
Сообщений: 5679
Ratio: 328,447
Поблагодарили: 21079
100%
Земля (1930)
aESThete
Стаж: 13 лет 3 мес.
Сообщений: 7
Ratio: 3,751
100%
russia.gif
futura2000
Спасибо за этот фильм и за "Землю" тоже.
Ещё подобные есть?

Ночной Сторож,
попробуете оценить с точки зрения логики "гиперболоид инженера гарина"? ;)
futura3000 ®
Uploader 100+
Стаж: 12 лет 10 мес.
Сообщений: 5679
Ratio: 328,447
Поблагодарили: 21079
100%
aESThete

Межпланетная революция ?
NorthOn
 
Админ
Стаж: 14 лет
Сообщений: 13714
Ratio: 2785,626
Поблагодарили: 14469
100%
nnm-club.gif
Торрент перерегистрирован в рамках акции Включаем DHT в древних раздачах
Теперь вам нужно его скачать и открыть в торрент-клиенте, указав в качестве места сохранения раздаваемый файл или папку.

_________________
Либо я найду путь, либо проложу его...
Filos
Стаж: 10 лет 3 мес.
Сообщений: 356
Ratio: 158,982
Раздал: 135,4 TB
Поблагодарили: 12054
100%
ussr.gif
Наивный и искренний героическо-восторженный взгляд в будущее, который в те времена действительно мог "зацепить" людей, всего поколение тому назад ещё бывших сермяжной пылью под сапогами господствующих классов. Сейчас да, воспринимается, в основном, как повод для насмешек.
Операторская работа, кстати, на вполне достойном уровне.
Благодарю за любопытный релиз.
sukaopa
Стаж: 8 лет 5 мес.
Сообщений: 315
Ratio: 1,485
51.98%
Откуда: Солнечный город
tuvala.gif
И все бы хорошо, но где пол-головы?

_________________
Ну во-первых, это красиво!
Показать сообщения:   
Начать новую тему   Ответить на тему    Торрент-трекер NNM-Club -> Классика кино и Старые фильмы до 90-х -> Старые Отечественные Фильмы (HD*Rip/LQ, DVDRip, SATRip, VHSRip) Часовой пояс: GMT + 3
Страница 1 из 1