Классический форум-трекер
canvas not supported
Нас вместе: 4 094 372

Формула 1: Гран-При Абу-Даби 2012. Гонка. (2012) SATRip


Страницы:  1, 2  След. 
 
RSS
Начать новую тему   Ответить на тему    Торрент-трекер NNM-Club -> Архив торрентов -> Архив Документалистики и TV
Автор Сообщение
SKVSM ®
Покровитель талантов
Uploader 100+
 
Стаж: 9 лет 4 мес.
Сообщений: 1083
Ratio: 297,911
Поблагодарили: 21452
100%
nnm-club.gif
Формула 1: Гран-При Абу-Даби. 2012. Гонка. (2012) SATRip
Название: Формула 1. Гран-При Абу-Даби. Гонка
Режиссер / Телекомпания: Россия,
Год выпуска: 2012
Жанр: Спорт, авто
Комментатор: Алексей Попов, Наталья Фабричнова

Описание:
Гран-при Абу-Даби — один из этапов чемпионата Мира по автогонкам в классе Формула-1, первая гонка на трассе, построенной на искусственном острове Яс прошла в сезоне 2009 года, 1 ноября. Этап стал последним, 17-м в календаре.Распространено заблуждение, что название «Гран-при Абу-Даби» происходит от названия города Абу-Даби, поблизости от которого находится трасса. На самом деле Гран-при Абу-Даби проводится на острове Яс, в нескольких километрах от столицы ОАЭ. Название же гран-при происходит от эмирата Абу-Даби, входящего в состав федеративного государства Объединённые Арабские Эмираты. Остров Яс не является частью города Абу-Даби, но является частью территории этого эмирата.

Продолжительность: 02:14:00

Видеокодек: Xvid
Битрейт видео: ~1628 Кбит/с
Размер кадра: 704 x 448
Качество видео: SATRip
Аудиокодек: MP3, 2 ch
Битрейт аудио: 128 Кбит/с

Код:

General
Complete name                            : D:\Formula1_2012_18of20_UAE_Race.avi
Format                                   : AVI
Format/Info                              : Audio Video Interleave
File size                                : 1.73 GiB
Duration                                 : 2h 14mn
Overall bit rate                         : 1 837 Kbps
Writing library                          : Boilsoft AVI tool build 1/release

Video
ID                                       : 0
Format                                   : MPEG-4 Visual
Format profile                           : Advanced Simple@L5
Format settings, BVOP                    : 2
Format settings, QPel                    : No
Format settings, GMC                     : No warppoints
Format settings, Matrix                  : Default (H.263)
Muxing mode                              : Packed bitstream
Codec ID                                 : XVID
Codec ID/Hint                            : XviD
Duration                                 : 2h 14mn
Bit rate                                 : 1 628 Kbps
Width                                    : 704 pixels
Height                                   : 448 pixels
Display aspect ratio                     : 1.571
Frame rate                               : 25.000 fps
Color space                              : YUV
Chroma subsampling                       : 4:2:0
Bit depth                                : 8 bits
Scan type                                : Progressive
Compression mode                         : Lossy
Bits/(Pixel*Frame)                       : 0.206
Stream size                              : 1.53 GiB (89%)
Writing library                          : XviD 1.2.1 (UTC 2008-12-04)

Audio
ID                                       : 1
Format                                   : MPEG Audio
Format version                           : Version 1
Format profile                           : Layer 3
Mode                                     : Joint stereo
Mode extension                           : MS Stereo
Codec ID                                 : 55
Codec ID/Hint                            : MP3
Duration                                 : 2h 14mn
Bit rate mode                            : Constant
Bit rate                                 : 128 Kbps
Channel(s)                               : 2 channels
Sampling rate                            : 48.0 KHz
Compression mode                         : Lossy
Stream size                              : 123 MiB (7%)
Alignment                                : Split accross interleaves


Скриншоты:




Формула 1 на NoNaMe Club

Время раздачи: 24/7 Круглосуточно до 5 скачавших.
[NNM-Club.ru]_Formula1_2012_18of20_UAE_Race.avi.torrent
 Торрент: Золотая раздача  Зарегистрирован
 
Зарегистрируйтесь и скачайте торрент!
17,6 KB

Примагнититься
 Зарегистрирован:   04 Ноя 2012 19:10:52
 Размер:   1,73 GB  (
 Рейтинг:   4,7 (Голосов: 65)
 Поблагодарили:   271
 Проверка:   Оформление проверено модератором 04 Ноя 2012 21:12:27
Как cкачать  ·  Как раздать  ·  Правильно оформить  ·  Поднять ратио!  
taras2222
Стаж: 9 лет 8 мес.
Сообщений: 236
Ratio: 48,592
100%
Откуда: Odessa
ukraine.gif
еще не качает, но уже спасибо :-)
Robn
Стаж: 9 лет 5 мес.
Сообщений: 27
Ratio: 2,505
100%
ukraine.gif
Ждем скорости. Спасибо! ;)
sepav
Стаж: 8 лет
Сообщений: 1
Ratio: 0,561
13.04%
Вяяяяло
billsdaughter
Стаж: 10 лет 5 мес.
Сообщений: 13
Ratio: 8,668
100%
Откуда: Spb-Msk
russia.gif
замечательная гонка. спасибо! такие в коллекцию, однозначно.
America07​0@yandex.​ru​
Стаж: 9 лет 6 мес.
Сообщений: 44
Ratio: 6,181
100%
usa.gif
Качаю, со скоростью всё ОК!
Спасибо автору!
inostra
Стаж: 8 лет 8 мес.
Сообщений: 10
Ratio: 21,929
72.81%
Откуда: Москва
russia.gif
Спасибо!
Почему так долго :) Устал ждать. Изнасиловал трекер....
Cep01
Стаж: 8 лет 5 мес.
Сообщений: 21
Ratio: 2,063
99.31%
germany.gif
спасибо!!!!!!!!!!!!!!!
Вадим0109
Стаж: 9 лет 1 мес.
Сообщений: 1
Ratio: 0,388
8.7%
кто знает здесь после гонки интервью переведены???
MOHCTPuK
Стаж: 9 лет 7 мес.
Сообщений: 12
Ratio: 2,376
100%
Спасибо за раздачу, но почему не вырезана реклама?
дядюшкаСЕМ
Стаж: 8 лет 9 мес.
Сообщений: 391
Ratio: 20,148
100%
Откуда: МОСКВА Орех стрит
russia.gif
Советую . . . Посмотрите народ, ну у кого не было возможности в прямом эфире посмотреть ! Мне очень понравилась ! ! ! ЭХ. . . Теперь 2 недели ждать снова до следующей гонки О нет
Nikitozz88
Стаж: 8 лет
Сообщений: 1
Ratio: 6,703
100%
Гонка блеск, спасибо
Arty-Grand
Стаж: 9 лет 9 мес.
Сообщений: 354
Ratio: 10,071
Раздал: 17,68 TB
100%
Откуда: Курган
russia.gif
дядюшкаСЕМ писал(а): Перейти к сообщению
Советую . . . Посмотрите народ, ну у кого не было возможности в прямом эфире посмотреть ! Мне очень понравилась ! ! ! ЭХ. . . Теперь 2 недели ждать снова до следующей гонки О нет

Всего одну недельку
vizl
Стаж: 9 лет 4 мес.
Сообщений: 86
Ratio: 1,63
Поблагодарили: 134
100%
млин хоть бы предупредил, что реклама не вырезана :стрельба:
Jeff475
Стаж: 9 лет
Сообщений: 1064
Ratio: 3,566
Раздал: 6,359 TB
100%
Откуда: Харьков
ukraine.gif
Спасибо!
Показать сообщения:   
Начать новую тему   Ответить на тему    Торрент-трекер NNM-Club -> Архив торрентов -> Архив Документалистики и TV Часовой пояс: GMT + 3
Страницы:  1, 2  След.
Страница 1 из 2