Классический форум-трекер
canvas not supported
Нас вместе: 4 093 781

Снежная тюрьма / Into the White (2012) HDRip


 
 
RSS
Начать новую тему   Ответить на тему    Торрент-трекер NNM-Club -> Архив торрентов -> Архив Видео
Автор Сообщение
SKVSM ®
Покровитель талантов
Uploader 100+
 
Стаж: 9 лет 4 мес.
Сообщений: 1083
Ratio: 297,829
Поблагодарили: 21434
100%
nnm-club.gif
Снежная тюрьма / Into the White (2012) HDRip
Русское название: Снежная тюрьма
Оригинальное название: Into the White
Год выпуска: 2012
Производство: Норвегия, Швеция, Eurimages
Жанр: Боевик, Драма, Военный, История
Перевод: Одноголосый закадровый, любительский
Озвучка / Автор перевода: cmert по субтитрам Dr.pro
Субтитры: Нет
Дата мировой премьеры: 4 марта 2012
Дата российской премьеры: 26 апреля 2013, «Русский репортаж»
Режиссер: Петтер Несс
Продюсер: Петер Ольбек Енсен, Валери Саундерс, Джессика Аск
Актеры: Флориан Лукас, Дэвид Кросс, Стиг Хенрик Хофф, Локлен Нибор, Руперт Гринт, Ким Хёуген
Описание фильма:
Одним холодным зимним днем над территорией Норвегии разгорается жаркое сражение двух самолетов — немецкого и английского. В результате столкновения обе машины получают серьезные повреждения и падают в глухом норвежском лесу. Здесь, в изоляции от внешнего мира, враги вынуждены выживать вместе. Тяжелые условия и необходимость поддерживать друг друга постепенно превращают врагов в товарищей...


Продолжительность: 01:37:41
Качество видео: HDRip
Видеокодек: Xvid
Битрейт видео: ~2005 Кбит/с
Размер кадра: 720 x 304
Аудио: MP3, 2 ch, 128 Кбит/с
Сэмпл: Скачать
General
Complete name : D:\Snezhnaja.tjurma.2012.HDRip.avi
Format : AVI
Format/Info : Audio Video Interleave
File size : 1.46 GiB
Duration : 1h 37mn
Overall bit rate : 2 143 Kbps
Writing application : VirtualDubMod 1.5.10.2 (build 2540/release)
Writing library : VirtualDubMod build 2540/release

Video
ID : 0
Format : MPEG-4 Visual
Format profile : Advanced Simple@L5
Format settings, BVOP : 2
Format settings, QPel : No
Format settings, GMC : No warppoints
Format settings, Matrix : Custom
Codec ID : XVID
Codec ID/Hint : XviD
Duration : 1h 37mn
Bit rate : 2 005 Kbps
Width : 720 pixels
Height : 304 pixels
Display aspect ratio : 2.35:1
Frame rate : 25.000 fps
Color space : YUV
Chroma subsampling : 4:2:0
Bit depth : 8 bits
Scan type : Progressive
Compression mode : Lossy
Bits/(Pixel*Frame) : 0.366
Stream size : 1.37 GiB (94%)
Writing library : XviD 1.2.1 (UTC 2008-12-04)

Audio
ID : 1
Format : MPEG Audio
Format version : Version 1
Format profile : Layer 3
Mode : Joint stereo
Mode extension : MS Stereo
Codec ID : 55
Codec ID/Hint : MP3
Duration : 1h 37mn
Bit rate mode : Constant
Bit rate : 128 Kbps
Channel(s) : 2 channels
Sampling rate : 48.0 KHz
Compression mode : Lossy
Stream size : 89.4 MiB (6%)
Alignment : Aligned on interleaves
Interleave, duration : 40 ms (1.00 video frame)
Interleave, preload duration : 504 ms
Скриншоты:






Время раздачи: 24/7 - круглосуточно
[NNM-Club.ru]_Snezhnaja.tjurma.2012.HDRip.avi.torrent
 Торрент: Золотая раздача  Зарегистрирован
 
Зарегистрируйтесь и скачайте торрент!
14,9 KB

Примагнититься
 Зарегистрирован:   05 Ноя 2012 16:45:38
 Размер:   1,46 GB  (
 Рейтинг:   4,8 (Голосов: 13)
 Поблагодарили:   56
 Проверка:   Внимание! Оформление не проверено модератором!
Как cкачать  ·  Как раздать  ·  Правильно оформить  ·  Поднять ратио!  
Топик был перенесен из форума Зарубежные Новинки (HD*Rip/LQ, DVDRip) в форум Архив Видео

Причина переноса: заменен: http://nnmclub.to/forum/viewtopic.php?t=570821
Lelya_K
PavelPugachOff
Стаж: 9 лет 9 мес.
Сообщений: 195
Ratio: 1,613
100%
russia.gif
Британцы с немцами в землянке
Судачили о том, о сём.
Кто был воякою при ранге,
А кто плешивым грязным псом.
За разделенье территорий,
Буквально вдоль и поперек.
С войной всегда приходит горе,
Урок истории не впрок!
Питались, как олени, мохом,
Хотели пожевать мясца.
От голодухи было плохо,
Улыбка сбрызнула с лица.
Но вот, стрельнув из пистолета,
Добыли зайца-беляка!
Косой, а песня твоя спета,
Жаль, нет под мясо коньяка…
Тем временем, у их землянки
Хотела съехать, на хрен, крыша…
Уж лучше бы в окоп, под танки,
Чем подпирать её плечищем!
И снова в руки пистолеты,
Британцы с немцами в раздоре…
Какие у кого анкеты
Плевать, не опознают вскоре!
Товарища четвертовали,
Рубили руку топором.
Её снаружи закопали,
Чтобы гнила, но подо льдом.
Пришла пора, спаслись вояки
Из той заснеженной тюрьмы.
Быть может, быль, а может – враки,
Но им мЯдали дать должны!

4.5 из 10.
nikula271
Стаж: 7 лет 11 мес.
Сообщений: 404
Ratio: 17,494
100%
russia.gif
Кинушка очень средненькая,по отдельности они бы выжили точно так же.
Показать сообщения:   
Начать новую тему   Ответить на тему    Торрент-трекер NNM-Club -> Архив торрентов -> Архив Видео Часовой пояс: GMT + 3
Страница 1 из 1