Классический форум-трекер
canvas not supported
Нас вместе: 4 093 743

Снежная тюрьма / Into the White (2012) [Xvid/720p-LQ] BDRip


 
 
RSS
Начать новую тему   Ответить на тему    Торрент-трекер NNM-Club -> Архив торрентов -> Архив Видео
Автор Сообщение
SKVSM ®
Покровитель талантов
Uploader 100+
 
Стаж: 9 лет 4 мес.
Сообщений: 1083
Ratio: 297,919
Поблагодарили: 21434
100%
nnm-club.gif
Снежная тюрьма / Into the White (2012) [Xvid/720p-LQ] BDRip
Русское название: Снежная тюрьма
Оригинальное название: Into the White
Год выпуска: 2012
Производство: Норвегия, Швеция, Eurimages
Жанр: Боевик, Драма, Военный, История
Перевод: Одноголосый закадровый, любительский
Озвучка / Автор перевода: cmert по субтитрам Dr.pro
Субтитры: Нет
Дата мировой премьеры: 4 марта 2012
Дата российской премьеры: 26 апреля 2013, «Русский репортаж»
Режиссер: Петтер Несс
Продюсер: Петер Ольбек Енсен, Валери Саундерс, Джессика Аск
Актеры: Флориан Лукас, Дэвид Кросс, Стиг Хенрик Хофф, Локлен Нибор, Руперт Гринт, Ким Хёуген
Описание фильма:
Одним холодным зимним днем над территорией Норвегии разгорается жаркое сражение двух самолетов — немецкого и английского. В результате столкновения обе машины получают серьезные повреждения и падают в глухом норвежском лесу. Здесь, в изоляции от внешнего мира, враги вынуждены выживать вместе. Тяжелые условия и необходимость поддерживать друг друга постепенно превращают врагов в товарищей...


Продолжительность: 01:39:58
Качество видео: BDRip 720p-LQ

Видеокодек: Xvid
Битрейт видео: ~3300 Кбит/с
Размер кадра: 1280 x 544
Аудио:
#1: MP3, 2 ch, 128 Кбит/с (Русский)
#2: AC3, 6 ch, 448 Кбит/с (Английский)
Сэмпл: Скачать
General
Complete name : D:\Into.The.White.2012.BDRip.XviD.avi
Format : AVI
Format/Info : Audio Video Interleave
Format profile : OpenDML
File size : 2.72 GiB
Duration : 1h 39mn
Overall bit rate : 3 893 Kbps
Writing application : VirtualDubMod 1.5.10.2 (build 2540/release)
Writing library : VirtualDubMod build 2540/release

Video
ID : 0
Format : MPEG-4 Visual
Format profile : Advanced Simple@L5
Format settings, BVOP : 2
Format settings, QPel : Yes
Format settings, GMC : No warppoints
Format settings, Matrix : Default (MPEG)
Codec ID : XVID
Codec ID/Hint : XviD
Duration : 1h 39mn
Bit rate : 3 300 Kbps
Width : 1 280 pixels
Height : 544 pixels
Display aspect ratio : 2.35:1
Frame rate : 25.000 fps
Color space : YUV
Chroma subsampling : 4:2:0
Bit depth : 8 bits
Scan type : Progressive
Compression mode : Lossy
Bits/(Pixel*Frame) : 0.190
Stream size : 2.30 GiB (85%)
Writing library : XviD 1.2.1 (UTC 2008-12-04)

Audio #1
ID : 1
Format : MPEG Audio
Format version : Version 1
Format profile : Layer 3
Mode : Joint stereo
Mode extension : MS Stereo
Codec ID : 55
Codec ID/Hint : MP3
Duration : 1h 39mn
Bit rate mode : Constant
Bit rate : 128 Kbps
Channel(s) : 2 channels
Sampling rate : 48.0 KHz
Compression mode : Lossy
Stream size : 91.5 MiB (3%)
Alignment : Aligned on interleaves
Interleave, duration : 40 ms (1.00 video frame)
Interleave, preload duration : 504 ms

Audio #2
ID : 2
Format : AC-3
Format/Info : Audio Coding 3
Mode extension : CM (complete main)
Format settings, Endianness : Big
Codec ID : 2000
Duration : 1h 39mn
Bit rate mode : Constant
Bit rate : 448 Kbps
Channel(s) : 6 channels
Channel positions : Front: L C R, Side: L R, LFE
Sampling rate : 48.0 KHz
Bit depth : 16 bits
Compression mode : Lossy
Stream size : 320 MiB (12%)
Alignment : Split accross interleaves
Interleave, duration : 40 ms (1.00 video frame)
Interleave, preload duration : 500 ms
Скриншоты:




Время раздачи: 24/7 - круглосуточно
[NNM-Club.ru]_Into.The.White.2012.BDRip.XviD.avi.torrent
 Торрент: Золотая раздача  Зарегистрирован
 
Зарегистрируйтесь и скачайте торрент!
13,9 KB

Примагнититься
 Зарегистрирован:   06 Ноя 2012 12:30:51
 Размер:   2,72 GB  (
 Рейтинг:   4,2 (Голосов: 40)
 Поблагодарили:   187
 Проверка:   Оформление проверено модератором 06 Ноя 2012 20:27:29
Как cкачать  ·  Как раздать  ·  Правильно оформить  ·  Поднять ратио!  
socet111
Стаж: 9 лет
Сообщений: 509
Ratio: 13,078
100%
Откуда: Киев
ukraine.gif
Как перевод ?
alinto
Стаж: 10 лет 11 мес.
Сообщений: 86
Ratio: 23,373
Поблагодарили: 622
100%
russia.gif
руки б оторвать тому, кто делал нашу дорогу, полфильма как с экранки звук, есть же нормальная дорога оригинал, даже в ДТС, можно ж было положить чистый голос по-человечески.... буду ждать оф.релиза в апреле. Даже блюрик собрать расхотелось.....
женя 111
Стаж: 10 лет 3 мес.
Сообщений: 51
Ratio: 17,39
21.27%
belarus.gif
Перевод конечно не фонтан, но фильм интересный.
USSRxEXHAUST
Стаж: 11 лет
Сообщений: 2
Ratio: 13,511
4.44%
russia.gif
Сюжет фильма Враг мой :) интересно будет посмотреть что получилось в более реальной обстановке.
Топик был перенесен из форума Зарубежные Новинки (HD*Rip/LQ, DVDRip) в форум Архив Видео

Причина переноса: http://nnmclub.to/forum/viewtopic.php?t=573860
Lelya_K
Terr_
Стаж: 8 лет 10 мес.
Сообщений: 25
Ratio: 0,978
Поблагодарили: 133
100%
Перевод ужасен
Показать сообщения:   
Начать новую тему   Ответить на тему    Торрент-трекер NNM-Club -> Архив торрентов -> Архив Видео Часовой пояс: GMT + 3
Страница 1 из 1