Классический форум-трекер
canvas not supported
Нас вместе: 4 093 920

Jimi Hendrix - Jimi Plays Berkeley 1970 (2003) DVDRip


 
 
RSS
Начать новую тему   Ответить на тему    Торрент-трекер NNM-Club -> Театр и Музыкальное видео -> Концерты
Автор Сообщение
terras50 ®
RG Releasers
 

Online
Стаж: 7 лет 11 мес.
Сообщений: 5762
Ratio: 73,025
Поблагодарили: 254035
100%
Откуда: Вильнюс. Литва
lithuania.gif
Jimi Hendrix - Jimi Plays Berkeley 1970 (2003) DVDRip


Год выпуска на DVD: 2003
Жанр: Концерт, Blues-Rock
Продолжительность: 00:48:18
Описание:Отрывки из концерта в Беркли (Калифорния) 30 мая 1970 года. Фильм Jimi Plays Berkeley всегда занимал очень важную роль в жизни Джима Хендрикса. Выстрел, который погубил великого музыканта, застал врасплох очень многих, поэтому данная картина мало похожа на настоящий документальный фильм. В фильме использованы фрагменты выступлений Джими, басиста Билли Кокс и барабанщика Митч Митчелл с двух концертов. Данную картину можно рассматривать, как капсулу времени той эпохи.
Треклист:
01. Jimi In Limousine
02. Afternoon Rehearsals
03. Johnny B. Goode
04. Hear My Train A Comin'
05. Star Spangeled Banner
06. Purple Haze
07. Hey Baby (New Rising Sun)
08. Lover Man
09. I Don't Live Today
10. Machine Gun
11. Voodoo Child (Slight Return)
Видео: DivX 5, 1681 kbps, 512x384
Аудио: MP3 2.0, 192 kbps

Код:
Полное имя                               : Z:\Концерты\Jimi Hendrix- Jimi Plays Berkeley 1970.avi
Формат                                   : AVI
Формат/Информация                        : Audio Video Interleave
Размер файла                             : 652 Мбайт
Продолжительность                        : 48 м.
Общий поток                              : 1887 Кбит/сек
Программа кодирования                    : Lavf51.12.1

Видео
Идентификатор                            : 0
Формат                                   : MPEG-4 Visual
Профиль формата                          : Simple@L1
Параметр BVOP формата                    : Нет
Параметр QPel формата                    : Нет
Параметр GMC формата                     : Без точки перехода
Параметр матрицы формата                 : Default (H.263)
Идентификатор кодека                     : DX50
Идентификатор кодека/Подсказка           : DivX 5
Продолжительность                        : 48 м.
Битрейт                                  : 1681 Кбит/сек
Ширина                                   : 512 пикселей
Высота                                   : 384 пикселя
Соотношение сторон                       : 4:3
Частота кадров                           : 29,970 кадров/сек
Цветовое пространство                    : YUV
Субдискретизация насыщенности            : 4:2:0
Битовая глубина                          : 8 бит
Тип развёртки                            : Прогрессивная
Метод сжатия                             : С потерями
Бит/(Пиксели*Кадры)                      : 0.285
Размер потока                            : 581 Мбайт (89%)
Библиотека кодирования                   : Lavc51.40.4

Аудио
Идентификатор                            : 1
Формат                                   : MPEG Audio
Версия формата                           : Version 1
Профиль формата                          : Layer 3
Режим                                    : Joint stereo
Расширение режима                        : MS Stereo
Идентификатор кодека                     : 55
Идентификатор кодека/Подсказка           : MP3
Продолжительность                        : 48 м.
Вид битрейта                             : Постоянный
Битрейт                                  : 192 Кбит/сек
Каналы                                   : 2 канала
Частота                                  : 48,0 КГц
Метод сжатия                             : С потерями
Размер потока                            : 66,3 Мбайт (10%)
Выравнивание                             : Соединение по промежуткам
Продолжительность промежутка             : 24  мс. (0,72 видеокадр)
Скриншоты:



Реставрация sklad600
[NNM-Club.ru]_Jimi Hendrix- Jimi Plays Berkeley 1970.avi.torrent
 Торрент: Платиновая раздача  Зарегистрирован
 
Скачать


Примагнититься
 Зарегистрирован:   08 Ноя 2012 18:49:55
 Размер:   652 MB  (
 Рейтинг:   4,9 (Голосов: 17)
 Поблагодарили:   65
 Проверка:   Оформление проверено модератором 10 Ноя 2012 00:43:33
Как cкачать  ·  Как раздать  ·  Правильно оформить  ·  Поднять ратио!  

_________________
У всех людей своя музыка. Иногда я вижу человека, а от него музыка звучит. Какой человек — такая и музыка.
юрчил
Стаж: 8 лет 10 мес.
Сообщений: 649
Ratio: 0,574
Раздал: 388 GB
100%
Откуда: кемерово
russia.gif
СПАСИБОЧКИ. Опять радуешь стареньким.

_________________
Спасибо всей команде nnm-club
Показать сообщения:   
Начать новую тему   Ответить на тему    Торрент-трекер NNM-Club -> Театр и Музыкальное видео -> Концерты Часовой пояс: GMT + 3
Страница 1 из 1