Классический форум-трекер
canvas not supported
Нас вместе: 4 079 383

16 желаний / 16 Wishes (2010) [1080p] BDRip


 
 
RSS
Начать новую тему   Ответить на тему    Торрент-трекер NNM-Club -> Архив торрентов -> Архив Видео
Автор Сообщение
Loko73loko ®
Стаж: 8 лет 10 мес.
Сообщений: 343
Ratio: 26,18
Поблагодарили: 11915
100%
Откуда: Мистик фолс
russia.gif
16 желаний / 16 Wishes (2010) [1080p] BDRip
Русское название: 16 желаний
Оригинальное название: 16 Wishes
Год выпуска: 2010
Жанр: Фэнтези, Семейный, Приключения

Описание фильма:
Эбби Дженсен планировала свое 16-летие с того момента как она была маленькой девочкой. Когда наступает этот день, она добавляет последнее (16-ое) желание в свой список желаний. К ее удивлению она получает коробку с 16-ю праздничными свечами, каждая из которых соответствует номеру ее желаний в списке. Как ее желания исполняются, ее день становится все лучше и лучше, пока она не загадает желание изменившее все и поможет себе понять что быть ребенком не так уж и плохо.

Режиссер: Питер ДеЛуис
Актеры: Дебби Райан, Жан-Люк Билодо, Анна Мэй Рутледж, Карисса Тьюнс, Кендалл Кросс, Патрик Гилмор, Кайнан Виб, Кинэн Трэйси, Джесси Рейд, Джоэль Хэйес

Продолжительность: 01:30:07
Перевод: Дублированный, профессиональный двухголосый
Язык субтитров: Russian, English
Вид субтитров: Вшитые



Видеокодек: MPEG-4 AVC/H.264
Битрейт видео: ~11700 kbps
Размер кадра: 1920x1080
Качество видео: BDRip
Аудио 1: Russian: 48 kHz, AC3, 2/0 (L,R) ch, ~192 kbps avg |Дубляж|)
Аудио 2: Russian: 48 kHz, DTS, 3/2 (L,C,R,l,r) + LFE ch, ~1536 kbps avg |Двухголосый закадровый, R5|)
Аудио 3: English: 48 kHz, DTS, 3/2 (L,C,R,l,r) + LFE ch, ~1536 kbps avg/ 16-bit)
Код:

Формат                                   : Matroska
 Версия формата                           : Version 2
 Размер файла                             : 9,57 Гбайт
 Продолжительность                        : 1 ч. 30 м.
 Общий поток                              : 15,2 Мбит/сек
 Название фильма                          : 16 Wishes (2010)  -  Release for HDCLUB
 Дата кодирования                         : UTC 2012-11-05 14:22:34
 Программа кодирования                    : mkvmerge v5.8.0 ('No Sleep / Pillow') built on Sep  2 2012 15:37:04
 Библиотека кодирования                   : libebml v1.2.3 + libmatroska v1.3.0

 Видео
 Идентификатор                            : 1
 Формат                                   : AVC
 Формат/Информация                        : Advanced Video Codec
 Профиль формата                          : High@L4.1
 Параметр CABAC формата                   : Да
 Параметр ReFrames формата                : 4 кадра
 Идентификатор кодека                     : V_MPEG4/ISO/AVC
 Продолжительность                        : 1 ч. 30 м.
 Битрейт                                  : 11,7 Мбит/сек
 Ширина                                   : 1920 пикселей
 Высота                                   : 1080 пикселей
 Соотношение сторон                       : 16:9
 Частота кадров                           : 23,976 кадра/сек
 Цветовое пространство                    : YUV
 Субдискретизация насыщенности            : 4:2:0
 Битовая глубина                          : 8 бит
 Тип развёртки                            : Прогрессивная
 Бит/(Пиксели*Кадры)                      : 0.235
 Размер потока                            : 7,36 Гбайт (77%)
 Заголовок                                : Release for HDCLUB
 Библиотека кодирования                   : x264 core 128 r2216 198a7ea
 Настройки программы                      : cabac=1 / ref=4 / deblock=1:-3:-3 / analyse=0x3:0x133 / me=umh / subme=11 / psy=1 / psy_rd=0.95:0.00 / mixed_ref=1 / me_range=48 / chroma_me=1 / trellis=2 / 8x8dct=1 / cqm=0 / deadzone=21,11 / fast_pskip=0 / chroma_qp_offset=-2 / threads=12 / lookahead_threads=2 / sliced_threads=0 / nr=0 / decimate=1 / interlaced=0 / bluray_compat=0 / constrained_intra=0 / bframes=9 / b_pyramid=2 / b_adapt=2 / b_bias=0 / direct=3 / weightb=1 / open_gop=0 / weightp=2 / keyint=240 / keyint_min=24 / scenecut=40 / intra_refresh=0 / rc=crf / mbtree=0 / crf=17.8 / qcomp=0.60 / qpmin=0 / qpmax=69 / qpstep=4 / ip_ratio=1.40 / pb_ratio=1.30 / aq=1:0.80
 Язык                                     : English
 Default                                  : Да
 Forced                                   : Нет
 Основные цвета                           : BT.709-5, BT.1361, IEC 61966-2-4, SMPTE RP177
 Характеристики трансфера                 : BT.709-5, BT.1361
 Коэффициенты матрицы                     : BT.709-5, BT.1361, IEC 61966-2-4 709, SMPTE RP177

 Аудио #1
 Идентификатор                            : 2
 Формат                                   : AC-3
 Формат/Информация                        : Audio Coding 3
 Расширение режима                        : CM (complete main)
 Идентификатор кодека                     : A_AC3
 Продолжительность                        : 1 ч. 30 м.
 Вид битрейта                             : Постоянный
 Битрейт                                  : 192 Кбит/сек
 Каналы                                   : 2 канала
 Расположение каналов                     : Front: L R
 Частота                                  : 48,0 КГц
 Битовая глубина                          : 16 бит
 Метод сжатия                             : С потерями
 Размер потока                            : 124 Мбайт (1%)
 Заголовок                                : (AC3 2.0 @ 192 kbps - Дубляж)
 Язык                                     : Russian
 Default                                  : Да
 Forced                                   : Нет

 Аудио #2
 Идентификатор                            : 3
 Формат                                   : DTS
 Формат/Информация                        : Digital Theater Systems
 Идентификатор кодека                     : A_DTS
 Продолжительность                        : 1 ч. 30 м.
 Вид битрейта                             : Постоянный
 Битрейт                                  : 1510 Кбит/сек
 Каналы                                   : 6 каналов
 Расположение каналов                     : Front: L C R, Side: L R, LFE
 Частота                                  : 48,0 КГц
 Битовая глубина                          : 24 бит
 Метод сжатия                             : С потерями
 Размер потока                            : 973 Мбайт (10%)
 Заголовок                                : (DTS 5.1 @ 1510 kbps - Двухголосый закадровый, R5)
 Язык                                     : Russian
 Default                                  : Нет
 Forced                                   : Нет

 Аудио #3
 Идентификатор                            : 4
 Формат                                   : DTS
 Формат/Информация                        : Digital Theater Systems
 Идентификатор кодека                     : A_DTS
 Продолжительность                        : 1 ч. 30 м.
 Вид битрейта                             : Постоянный
 Битрейт                                  : 1510 Кбит/сек
 Каналы                                   : 6 каналов
 Расположение каналов                     : Front: L C R, Side: L R, LFE
 Частота                                  : 48,0 КГц
 Битовая глубина                          : 24 бит
 Метод сжатия                             : С потерями
 Размер потока                            : 973 Мбайт (10%)
 Заголовок                                : (DTS 5.1 @ 1510 kbps - Original)
 Язык                                     : English
 Default                                  : Нет
 Forced                                   : Нет

 Текст #1
 Идентификатор                            : 5
 Формат                                   : UTF-8
 Идентификатор кодека                     : S_TEXT/UTF8
 Идентификатор кодека/Информация          : UTF-8 Plain Text
 Заголовок                                : SRT
 Язык                                     : Russian
 Default                                  : Нет
 Forced                                   : Нет

 Текст #2
 Идентификатор                            : 6
 Формат                                   : UTF-8
 Идентификатор кодека                     : S_TEXT/UTF8
 Идентификатор кодека/Информация          : UTF-8 Plain Text
 Заголовок                                : SRT
 Язык                                     : English
 Default                                  : Нет
 Forced                                   : Нет

 Меню
 00:00:00.000                             : :Chapter 01
 00:04:00.198                             : :Chapter 02
 00:10:35.300                             : :Chapter 03
 00:21:36.628                             : :Chapter 04
 00:28:39.718                             : :Chapter 05
 00:40:07.571                             : :Chapter 06
 00:55:01.965                             : :Chapter 07
 01:04:54.724                             : :Chapter 08
 01:12:24.131                             : :Chapter 09
 01:21:00.479                             : :Chapter 10
 01:26:08.121                             : :Chapter 11
 01:28:46.404                             : :Chapter 12
 01:30:07.902                             : :Chapter 13
Скриншоты:
с1

Время раздачи: с 14:00 до 00:00
[NNM-Club.ru]_16.Wishes.2010.1080r.BluRay.2xRus.Eng..mkv.torrent
 Торрент: Бронзовая раздача  Зарегистрирован
 
Зарегистрируйтесь и скачайте торрент!
24,2 KB

 Зарегистрирован:   09 Ноя 2012 03:06:41
 Размер:   9,57 GB  (
 Рейтинг:    (Голосов: 8)
 Поблагодарили:   47
 Проверка:   Оформление проверено модератором 09 Ноя 2012 18:01:03
Как cкачать  ·  Как раздать  ·  Правильно оформить  ·  Поднять ратио!  
Топик был перенесен из форума Зарубежные Фильмы (HD) в форум Архив Видео

Причина переноса: Отсутствие раздающих > 1 месяца.
Dreemmer
Показать сообщения:   
Начать новую тему   Ответить на тему    Торрент-трекер NNM-Club -> Архив торрентов -> Архив Видео Часовой пояс: GMT + 3
Страница 1 из 1