Классический форум-трекер
canvas not supported
Нас вместе: 4 103 902

Звонок 0: Рождение / Ring 0: Birthday / Ringu 0: Basudei (2000) DVDRip


 
 
RSS
Начать новую тему   Ответить на тему    Торрент-трекер NNM-Club -> Зарубежное кино -> Азиатское кино (HD*Rip/LQ, DVDRip, SATRip, VHSRip)
Автор Сообщение
igoryokk ®
 
Стаж: 12 лет 5 мес.
Сообщений: 271
Ratio: 20,829
Поблагодарили: 685
100%
Откуда: Уганда
uganda.gif
Звонок 0: Рождение / Ring 0: Birthday / Ringu 0: Basudei (2000) DVDRip
Год выпуска: 2000
Производство: Япония / Ring 0: Birthday Seisaku Iinkai
Жанр: Ужасы

Описание фильма:
Чудовище, несущее смерть прямо с экрана телевизора, загадочное существо Садако Имамура, кто оно? Завеса тайны, заполонившая сознание ошеломленного зрителя после "Звонка" и "Звонка 2", теперь приоткрылась благодаря этому фильму.
Фильм предлагает предысторию роковых событий «Звонка» — рассказ о юной девушке Садако, которая обнаруживает в себе загадочные и устрашающие способности. Может быть, призрак внутри экрана — не исчадие Зла, а жертва людской ненависти...

Режиссер: Норио Цурута
Актеры: Юкиэ Накама, Сэйити Танабэ, Кумико Асо, Такеши Вакамацу, Рюджи Мидзуками, Каору Окунуки, Ясуси Кимура, Масами Хашимото, Дайскэ Бан, Масако

Продолжительность: 01:35:31
Качество видео: DVDRip
Перевод: Двухголосый закадровый, профессиональный



Дата мировой премьеры:.........22 января 2000
Дата выхода DVD релиза:........10 июня 2010, «CP-Digital»

Видео: MPEG-4 DivX 3 Low, 640x368 (16:9), 25.000 fps, ~922 Kb/s (0.157 bit/pixel)
Аудио: MP3, 48.0 KHz, 2.0 ch, 90,2 Kb/s, VBR | Russian
Код: выделить все

Общее
Полное имя                               : Ringu 0.avi
Формат                                   : AVI
Формат/Информация                        : Audio Video Interleave
Размер файла                             : 700 Мбайт
Продолжительность                        : 1 ч. 35 м.
Режим общего битрейта                    : Переменный
Общий поток                              : 1025 Кбит/сек
Программа кодирования                    : Nandub v1.0rc2
Библиотека кодирования                   : Nandub build 1852/release

Видео
Идентификатор                            : 0
Формат                                   : MPEG-4 Visual
Идентификатор кодека                     : DIV3
Идентификатор кодека/Подсказка           : DivX 3 Low
Продолжительность                        : 1 ч. 35 м.
Битрейт                                  : 922 Кбит/сек
Ширина                                   : 640 пикселей
Высота                                   : 368 пикселей
Соотношение сторон                       : 1,739
Частота кадров                           : 25,000 кадров/сек
Цветовое пространство                    : YUV
Субдискретизация насыщенности            : 4:2:0
Битовая глубина                          : 8 бит
Метод сжатия                             : С потерями
Бит/(Пиксели*Кадры)                      : 0.157
Размер потока                            : 630 Мбайт (90%)

Аудио
Идентификатор                            : 1
Формат                                   : MPEG Audio
Версия формата                           : Version 1
Профиль формата                          : Layer 3
Режим                                    : Joint stereo
Расширение режима                        : MS Stereo
Идентификатор кодека                     : 55
Идентификатор кодека/Подсказка           : MP3
Продолжительность                        : 1 ч. 35 м.
Вид битрейта                             : Переменный
Битрейт                                  : 90,2 Кбит/сек
Номинальный битрейт                      : 128 Кбит/сек
Каналы                                   : 2 канала
Частота                                  : 48,0 КГц
Метод сжатия                             : С потерями
Размер потока                            : 61,6 Мбайт (9%)
Выравнивание                             : Соединение по промежуткам
Продолжительность промежутка             : 24  мс. (0,60 видеокадр)
Время предзагрузки промежутка            : 494  мс.
Библиотека кодирования                   : LAME3.92
Настройки программы                      : -m j -V 0 -q 2 -lowpass 15.3 --abr 128
Скриншоты:


Время раздачи: 24/7 - круглосуточно
Реставрация от: Viсtоr
Ringu 0.avi.torrent
 Торрент: Платиновая раздача  Зарегистрирован
 
Скачать


 Зарегистрирован:   02 Янв 2008 17:26:01
 Размер:   700 MB  (
 Рейтинг:   4,9 (Голосов: 19)
 Поблагодарили:   59
 Проверка:   Оформление проверено модератором 03 Янв 2008 10:51:55
Как cкачать  ·  Как раздать  ·  Правильно оформить  ·  Поднять ратио!  
kolik74
Стаж: 8 лет 9 мес.
Сообщений: 14
Ratio: 9,562
51.67%
russia.gif
Мне он больше понравился чем амереканский!!!
possible.virus
Стаж: 9 лет 10 мес.
Сообщений: 8
Ratio: 24,391
0.86%
Откуда: СССР
ussr.gif
встал на раздачу

_________________
Показать сообщения:   
Начать новую тему   Ответить на тему    Торрент-трекер NNM-Club -> Зарубежное кино -> Азиатское кино (HD*Rip/LQ, DVDRip, SATRip, VHSRip) Часовой пояс: GMT + 3
Страница 1 из 1