Классический форум-трекер
canvas not supported
Нас вместе: 4 094 836

Максимальный срок / Maximum Conviction (2012) [H.264/720p-LQ] BDRip


 
 
RSS
Начать новую тему   Ответить на тему    Торрент-трекер NNM-Club -> Архив торрентов -> Архив Видео
Автор Сообщение
SKVSM ®
Покровитель талантов
Uploader 100+
 
Стаж: 9 лет 4 мес.
Сообщений: 1083
Ratio: 297,92
Поблагодарили: 21458
100%
nnm-club.gif
Максимальный срок / Maximum Conviction (2012) [H.264/720p-LQ] BDRip

Русское название: Максимальный срок
Оригинальное название: Maximum Conviction
Год выпуска: 2012
Производство: США / Steamroller Productions, Voltage Pictures
Жанр: Боевик, Триллер, Приключения
Перевод: Одноголосый закадровый, любительский
Язык субтитров: Английский
Вид субтитров: Вшитые (отключаемые)

Дата мировой премьеры: 25 октября 2012
Дата выхода DVD релиза: 21 ноября 2012, «Кармен Видео»
Дата выхода Blu-Ray релиза: 21 ноября 2012, «Кармен Видео»

Режиссер: Киони Ваксман
Продюсер: Стив Остин, Филлип Б. Голдфайн, Стивен Сигал
Актеры: Стивен Сигал, Стив Остин, Майкл Паре, Стеф Сонг, Брен Фостер, Кирби Морроу, Зак Сантьяго, Алийа О’Брайен, Тич Грант, Кристофер Гордон

Описание фильма:
Бывшие сотрудники секретного оперативного подразделения Том Стил и его напарник Мэннинг получают задание — осуществить процедуру закрытия старой тюрьмы, для чего им поручают проконтролировать прибытие двух женщин-заключенных. С первого взгляда, необременительное дело вскоре превращается в поле боевых действий — профессиональная группа наёмников проникает в тюрьму с целью — любой ценой отыскать вновь прибывших узниц. Выяснив, кем являются эти женщины на самом деле, оперативник Стил понимает, что он оказался втянут в нечто более опасное, чем он мог себе представить…



Продолжительность: 01:37:42
Качество видео: BDRip 720p-LQ

Видеокодек: MPEG-4 AVC/H.264
Битрейт видео: ~3006 Кбит/с
Размер кадра: 1280 x 720
Аудио:
#1: AC3, 6ch, 448 Кбит/с (Русский)
#2: AC3, 6ch, 384 Кбит/с (Английский)
Сэмпл: Ссылка
General
Unique ID : 213302073210393312940256818187183013179 (0xA0787C28EEABE51B89596C4482173D3B)
Complete name : G:\Maximum.Conviction.(2012).BDRip.720p.LQ.mkv
Format : Matroska
Format version : Version 2
File size : 2.62 GiB
Duration : 1h 37mn
Overall bit rate : 3 836 Kbps
Encoded date : UTC 2012-11-10 12:48:53
Writing application : mkvmerge v3.3.0 ('Language') built on Mar 24 2010 14:59:24
Writing library : libebml v0.8.0 + libmatroska v0.9.0

Video
ID : 1
Format : AVC
Format/Info : Advanced Video Codec
Format profile : High@L4.1
Format settings, CABAC : Yes
Format settings, ReFrames : 5 frames
Codec ID : V_MPEG4/ISO/AVC
Duration : 1h 37mn
Bit rate : 3 006 Kbps
Width : 1 280 pixels
Height : 720 pixels
Display aspect ratio : 16:9
Frame rate : 23.976 fps
Color space : YUV
Chroma subsampling : 4:2:0
Bit depth : 8 bits
Scan type : Progressive
Bits/(Pixel*Frame) : 0.136
Stream size : 2.00 GiB (76%)
Writing library : x264 core 92 r1510 33d382a
Encoding settings : cabac=1 / ref=5 / deblock=1:-3:-3 / analyse=0x3:0x113 / me=umh / subme=7 / psy=1 / psy_rd=1.00:0.20 / mixed_ref=1 / me_range=16 / chroma_me=1 / trellis=2 / 8x8dct=1 / cqm=0 / deadzone=21,11 / fast_pskip=0 / chroma_qp_offset=-3 / threads=6 / sliced_threads=0 / nr=0 / decimate=0 / interlaced=0 / constrained_intra=0 / bframes=3 / b_pyramid=2 / b_adapt=2 / b_bias=0 / direct=3 / wpredb=1 / wpredp=2 / keyint=250 / keyint_min=25 / scenecut=40 / intra_refresh=0 / rc_lookahead=40 / rc=2pass / mbtree=1 / bitrate=3006 / ratetol=1.0 / qcomp=0.60 / qpmin=10 / qpmax=51 / qpstep=4 / cplxblur=20.0 / qblur=0.5 / vbv_maxrate=17500 / vbv_bufsize=14000 / ip_ratio=1.40 / aq=1:1.00 / nal_hrd=none
Language : English
Default : Yes
Forced : No

Audio #1
ID : 2
Format : AC-3
Format/Info : Audio Coding 3
Mode extension : CM (complete main)
Format settings, Endianness : Big
Codec ID : A_AC3
Duration : 1h 37mn
Bit rate mode : Constant
Bit rate : 448 Kbps
Channel(s) : 6 channels
Channel positions : Front: L C R, Side: L R, LFE
Sampling rate : 44.1 KHz
Bit depth : 16 bits
Compression mode : Lossy
Stream size : 313 MiB (12%)
Language : Russian
Default : Yes
Forced : No

Audio #2
ID : 3
Format : AC-3
Format/Info : Audio Coding 3
Mode extension : CM (complete main)
Format settings, Endianness : Big
Codec ID : A_AC3
Duration : 1h 37mn
Bit rate mode : Constant
Bit rate : 384 Kbps
Channel(s) : 6 channels
Channel positions : Front: L C R, Side: L R, LFE
Sampling rate : 48.0 KHz
Bit depth : 16 bits
Compression mode : Lossy
Stream size : 268 MiB (10%)
Language : English
Default : No
Forced : No

Text
ID : 4
Format : UTF-8
Codec ID : S_TEXT/UTF8
Codec ID/Info : UTF-8 Plain Text
Language : English
Default : No
Forced : No

Menu
00:00:00.000 : en:Chapter 1
00:06:37.983 : en:Chapter 2
00:15:25.552 : en:Chapter 3
00:23:29.744 : en:Chapter 4
00:31:52.287 : en:Chapter 5
00:40:21.296 : en:Chapter 6
00:49:52.658 : en:Chapter 7
00:59:12.301 : en:Chapter 8
01:07:47.774 : en:Chapter 9
01:15:53.009 : en:Chapter 10
01:22:17.768 : en:Chapter 11
01:30:01.857 : en:Chapter 12
01:37:41.107 : en:Chapter 13
Скриншоты:





Время раздачи: 24/7 Круглосуточно до 5 скачавших.
[NNM-Club.ru]_Maximum.Conviction.(2012).BDRip.720p.LQ.mkv.torrent
 Торрент: Золотая раздача  Зарегистрирован
 
Зарегистрируйтесь и скачайте торрент!
13,4 KB

Примагнититься
 Зарегистрирован:   10 Ноя 2012 16:48:52
 Размер:   2,62 GB  (
 Рейтинг:   4,1 (Голосов: 31)
 Поблагодарили:   125
 Проверка:   Оформление проверено модератором 10 Ноя 2012 17:25:02
Как cкачать  ·  Как раздать  ·  Правильно оформить  ·  Поднять ратио!  
kiv
Стаж: 9 лет 6 мес.
Сообщений: 227
Ratio: 0,95
8.06%
russia.gif
Сигал старый и не интересный.

_________________

"Важнейшим из искусств для нас является кино" - В.И. Ленин.(Так звучит лучше)
Serj26rus
Стаж: 9 лет 4 мес.
Сообщений: 28
Ratio: 0,898
100%
russia.gif
точно старый пень
Lamber
Стаж: 10 лет 3 мес.
Сообщений: 143
Ratio: 2,634
100%
russia.gif
Фильм скучный!
рпг
Стаж: 9 лет 5 мес.
Сообщений: 111
Ratio: 12,836
100%
Откуда: Оттуда,откуда и все
ukraine.gif
Спасибо!А на счет старый-не старый....Думаю еще зубы отполирует так ,что мало не покажется.
ivvvvan
Стаж: 8 лет 8 мес.
Сообщений: 12
Ratio: 4,882
0%
russia.gif
рпг писал(а): Перейти к сообщению
Спасибо!А на счет старый-не старый....Думаю еще зубы отполирует так ,что мало не покажется.

Ага)+10
Показать сообщения:   
Начать новую тему   Ответить на тему    Торрент-трекер NNM-Club -> Архив торрентов -> Архив Видео Часовой пояс: GMT + 3
Страница 1 из 1