Классический форум-трекер
canvas not supported
Нас вместе: 4 093 677

Снежная тюрьма / Into the White (2012) [Xvid/720p-LQ] BDRip


 
 
RSS
Начать новую тему   Ответить на тему    Торрент-трекер NNM-Club -> Архив торрентов -> Архив Видео
Автор Сообщение
SKVSM ®
Покровитель талантов
Uploader 100+
 
Стаж: 9 лет 4 мес.
Сообщений: 1083
Ratio: 297,829
Поблагодарили: 21434
100%
nnm-club.gif
Снежная тюрьма / Into the White (2012) [Xvid/720p-LQ] BDRip
Русское название: Снежная тюрьма
Оригинальное название: Into the White
Год выпуска: 2012
Производство: Норвегия, Швеция, Eurimages
Жанр: Боевик, Драма, Военный, История
Перевод: Одноголосый закадровый, любительский
Озвучка / Автор перевода:
zamez , cmert по субтитрам Dr.pro
Субтитры: Нет
Дата мировой премьеры: 4 марта 2012
Дата российской премьеры: 26 апреля 2013, «Русский репортаж»
Режиссер: Петтер Несс
Продюсер: Петер Ольбек Енсен, Валери Саундерс, Джессика Аск
Актеры: Флориан Лукас, Дэвид Кросс, Стиг Хенрик Хофф, Локлен Нибор, Руперт Гринт, Ким Хёуген
Описание фильма:
Одним холодным зимним днем над территорией Норвегии разгорается жаркое сражение двух самолетов — немецкого и английского. В результате столкновения обе машины получают серьезные повреждения и падают в глухом норвежском лесу. Здесь, в изоляции от внешнего мира, враги вынуждены выживать вместе. Тяжелые условия и необходимость поддерживать друг друга постепенно превращают врагов в товарищей...


Продолжительность: 01:39:58
Качество видео: BDRip 720p-LQ
Видеокодек: Xvid
Битрейт видео: ~3300 Кбит/с
Размер кадра: 1280 x 544
Аудио:
#1: AC3, 6 ch, 384 Кбит/с (Русский) [zamez]
#2: MP3, 2 ch, 128 Кбит/с (Русский) [cmert]
#3: AC3, 6 ch, 448 Кбит/с (Английский)
Сэмпл: Скачать
General
Complete name : C:\Into_The_White.2012.BDRip.XviD.avi
Format : AVI
Format/Info : Audio Video Interleave
Format profile : OpenDML
File size : 2.99 GiB
Duration : 1h 39mn
Overall bit rate : 4 281 Kbps
Writing application : VirtualDubMod 1.5.10.2 (build 2540/release)
Writing library : VirtualDubMod build 2540/release

Video
ID : 0
Format : MPEG-4 Visual
Format profile : Advanced Simple@L5
Format settings, BVOP : 2
Format settings, QPel : Yes
Format settings, GMC : No warppoints
Format settings, Matrix : Default (MPEG)
Codec ID : XVID
Codec ID/Hint : XviD
Duration : 1h 39mn
Bit rate : 3 300 Kbps
Width : 1 280 pixels
Height : 544 pixels
Display aspect ratio : 2.35:1
Frame rate : 25.000 fps
Color space : YUV
Chroma subsampling : 4:2:0
Bit depth : 8 bits
Scan type : Progressive
Compression mode : Lossy
Bits/(Pixel*Frame) : 0.190
Stream size : 2.30 GiB (77%)
Writing library : XviD 1.2.1 (UTC 2008-12-04)

Audio #1
ID : 1
Format : AC-3
Format/Info : Audio Coding 3
Mode extension : CM (complete main)
Format settings, Endianness : Big
Codec ID : 2000
Duration : 1h 39mn
Bit rate mode : Constant
Bit rate : 384 Kbps
Channel(s) : 6 channels
Channel positions : Front: L C R, Side: L R, LFE
Sampling rate : 48.0 KHz
Bit depth : 16 bits
Compression mode : Lossy
Stream size : 275 MiB (9%)
Alignment : Split accross interleaves
Interleave, duration : 40 ms (1.00 video frame)
Interleave, preload duration : 500 ms

Audio #2
ID : 2
Format : MPEG Audio
Format version : Version 1
Format profile : Layer 3
Mode : Joint stereo
Mode extension : MS Stereo
Codec ID : 55
Codec ID/Hint : MP3
Duration : 1h 39mn
Bit rate mode : Constant
Bit rate : 128 Kbps
Channel(s) : 2 channels
Sampling rate : 48.0 KHz
Compression mode : Lossy
Stream size : 91.5 MiB (3%)
Alignment : Aligned on interleaves
Interleave, duration : 40 ms (1.00 video frame)
Interleave, preload duration : 504 ms

Audio #3
ID : 3
Format : AC-3
Format/Info : Audio Coding 3
Mode extension : CM (complete main)
Format settings, Endianness : Big
Codec ID : 2000
Duration : 1h 39mn
Bit rate mode : Constant
Bit rate : 448 Kbps
Channel(s) : 6 channels
Channel positions : Front: L C R, Side: L R, LFE
Sampling rate : 48.0 KHz
Bit depth : 16 bits
Compression mode : Lossy
Stream size : 320 MiB (10%)
Alignment : Split accross interleaves
Interleave, duration : 40 ms (1.00 video frame)
Interleave, preload duration : 500 ms
Скриншоты:




Время раздачи: 24/7 - круглосуточно
[NNM-Club.ru]_Into_The_White.2012.BDRip.XviD.avi.torrent
 Торрент: Золотая раздача  Зарегистрирован
 
Зарегистрируйтесь и скачайте торрент!
15,2 KB

Примагнититься
 Зарегистрирован:   11 Ноя 2012 20:16:56
 Размер:   2,99 GB  (
 Рейтинг:   4,4 (Голосов: 13)
 Поблагодарили:   66
 Проверка:   Оформление проверено модератором 12 Ноя 2012 06:21:00
Как cкачать  ·  Как раздать  ·  Правильно оформить  ·  Поднять ратио!  
SKVSM ®
Покровитель талантов
Uploader 100+
 
Стаж: 9 лет 4 мес.
Сообщений: 1083
Ratio: 297,829
Поблагодарили: 21434
100%
nnm-club.gif
Мои извинения!
Торрент-файл перезалит.
Lelya_K
Стаж: 8 лет 11 мес.
Сообщений: 5536
Ratio: 7169,418
Раздал: 109,3 TB
Поблагодарили: 620256
100%
Откуда: Московская область
nnm-club.gif
SKVSM писал(а):
Видеокодек: Xvid
Битрейт видео: ~3300 Кбит/с


SKVSM писал(а):
Размер кадра: 1280 x 544

Низкое качество видео. В разделе был временно.
Показать сообщения:   
Начать новую тему   Ответить на тему    Торрент-трекер NNM-Club -> Архив торрентов -> Архив Видео Часовой пояс: GMT + 3
Страница 1 из 1