Классический форум-трекер
canvas not supported
Нас вместе: 4 079 376

Фокус Покус / Hocus Pocus (1993) [720p] BDRip


 
 
RSS
Начать новую тему   Ответить на тему    Торрент-трекер NNM-Club -> Зарубежное кино -> Зарубежные Фильмы (HD, UHD-LQ)
Автор Сообщение
Loko73loko ®
Стаж: 8 лет 10 мес.
Сообщений: 343
Ratio: 26,217
Поблагодарили: 11919
100%
Откуда: Мистик фолс
russia.gif
Фокус Покус / Hocus Pocus (1993) [720p] BDRip
Русское название: Фокус-покус
Оригинальное название: Hocus Pocus
Год выпуска: 1993
Жанр: Ужасы, Фэнтези, Комедия

Описание фильма:
Согласно легенде, если невинная девушка в ночь Хэллоуина зажжет свечу в доме сестер Сандерсон, то ведьмы встанут из могил и съедят всех детей в городе, чтобы самим стать вечно молодыми.

Поскольку коварным сестрицам суждено воскреснуть через 300 лет после казни за колдовство, им придется привыкать к современным нравам. Например, зачем летать на метле, если есть пылесос? Делая всякие магические гадости, сестрицы Сандерсон так увлекаются этим занятием, что забывают о своем хитром противнике — черном коте…

Режиссер: Кенни Ортега
Актеры: Бетт Мидлер, Сара Джессика Паркер, Кэти Нэджими, Омри Кац, Тора Бёрч, Ванесса Шоу, Аманда Шепард, Ларри Бэгби, Тобиаш Элинек, Стефани Фэраси, Чарльз Роккет, Даг Джонс, Керин Малчус, Шон Мюррэй, Стив Воборжил, Норберт Вайссер, Кэтлин Фримен, Д.А. Поли, Эзра Саттон, Дон Йессо, Майкл МакГрэйди, Ли Хэмилтон, Девон Ривз, Джозеф Мэлоун, Джордан Редмонд, Тейлор Стэнли, Пенни Маршалл, Гэрри Маршалл, Крис Генри Коффи

Продолжительность: 01:36:16
Перевод: Многоголосый закадровый, Двухголосый закадровый, Одноголосый закадровый
Язык субтитров: Русские, английские
Вид субтитров: Вшитые



Видеокодек: MPEG-4 AVC/H.264
Битрейт видео: ~5732 Кбит/с
Размер кадра: 1280x694
Качество видео: BDRip
Аудио 1: Russian: 48 kHz, AC3, 3/2 (L,C,R,l,r) + LFE ch, ~640 kbps avg |Многоголосый закадровый, Позитив Мультимедиа|
Аудио 2: Russian: 48 kHz, AC3, 3/2 (L,C,R,l,r) + LFE ch, ~640 kbps avg |Двухголосый закадровый, Видеосервис|
Аудио 3: Russian: 48 kHz, AC3, 3/2 (L,C,R,l,r) + LFE ch, ~640 kbps avg |Двухголосый закадровый, Петр Гланц и Инна Королёва|
Аудио 4: Russian: 48 kHz, AC3, 3/2 (L,C,R,l,r) + LFE ch, ~640 kbps avg |Одноголосый закадровый, В.Горчаков|
Аудио 5: Russian: 48 kHz, AC3, 2/0 (L,R) ch, ~192 kbps avg |Многоголосый закадровый, НТВ|
Аудио 6: Russian: 48 kHz, AC3, 2/0 (L,R) ch, ~192 kbps avg |Многоголосый закадровый, СТС|
Аудио 7: Russian: 48 kHz, AC3, 2/0 (L,R) ch, ~192 kbps avg |Одноголосый закадровый, В.Дохалов|
Аудио 8: English:48 kHz, AC3, 3/2 (L,C,R,l,r) + LFE ch, ~640 kbps avg avg
Уникальный идентификатор : 203528912680117813835287851394235464669 (0x991E3E24BA4F88EA8D1A33E737CD7BDD)
Полное имя : E:\Фильмы\Hocus.Pocus.1993.720p.BluRay.7xRus.Eng.HDCLUB.mkv
Формат : Matroska
Версия формата : Version 2
Размер файла : 6,39 Гбайт
Продолжительность : 1 ч. 36 м.
Общий поток : 9508 Кбит/сек
Название фильма : Mad Max
Дата кодирования : UTC 2012-11-07 16:56:09
Программа кодирования : mkvmerge v5.8.0 ('No Sleep / Pillow') built on Sep 2 2012 15:37:04
Библиотека кодирования : libebml v1.2.3 + libmatroska v1.3.0

Видео
Идентификатор : 1
Формат : AVC
Формат/Информация : Advanced Video Codec
Профиль формата : High@L4.1
Параметр CABAC формата : Да
Параметр ReFrames формата : 9 кадров
Идентификатор кодека : V_MPEG4/ISO/AVC
Продолжительность : 1 ч. 36 м.
Битрейт : 5732 Кбит/сек
Ширина : 1280 пикселей
Высота : 694 пикселя
Соотношение сторон : 1,85:1
Частота кадров : 23,976 кадра/сек
Цветовое пространство : YUV
Субдискретизация насыщенности : 4:2:0
Битовая глубина : 8 бит
Тип развёртки : Прогрессивная
Бит/(Пиксели*Кадры) : 0.269
Размер потока : 3,73 Гбайт (58%)
Библиотека кодирования : x264 core 125 r2208 d9d2288
Настройки программы : cabac=1 / ref=9 / deblock=1:-3:-3 / analyse=0x3:0x113 / me=esa / subme=11 / psy=1 / psy_rd=1.00:0.20 / mixed_ref=1 / me_range=32 / chroma_me=1 / trellis=2 / 8x8dct=1 / cqm=0 / deadzone=21,11 / fast_pskip=0 / chroma_qp_offset=-3 / threads=4 / lookahead_threads=1 / sliced_threads=0 / nr=0 / decimate=0 / interlaced=0 / bluray_compat=0 / constrained_intra=0 / bframes=13 / b_pyramid=2 / b_adapt=2 / b_bias=0 / direct=3 / weightb=1 / open_gop=0 / weightp=2 / keyint=240 / keyint_min=23 / scenecut=40 / intra_refresh=0 / rc_lookahead=40 / rc=2pass / mbtree=0 / bitrate=5732 / ratetol=1.0 / qcomp=0.60 / qpmin=0 / qpmax=69 / qpstep=4 / cplxblur=20.0 / qblur=0.5 / vbv_maxrate=50000 / vbv_bufsize=50000 / nal_hrd=none / ip_ratio=1.40 / pb_ratio=1.30 / aq=1:1.00
Язык : English
Default : Да
Forced : Нет

Аудио #1
Идентификатор : 2
Формат : AC-3
Формат/Информация : Audio Coding 3
Расширение режима : CM (complete main)
Параметр Endianness формата : Big
Идентификатор кодека : A_AC3
Продолжительность : 1 ч. 36 м.
Вид битрейта : Постоянный
Битрейт : 640 Кбит/сек
Каналы : 6 каналов
Расположение каналов : Front: L C R, Side: L R, LFE
Частота : 48,0 КГц
Битовая глубина : 16 бит
Метод сжатия : С потерями
Размер потока : 441 Мбайт (7%)
Заголовок : AC3 5.1 ch 640 kbps MVO Позитив Мультимедия
Язык : Russian
Default : Да
Forced : Нет

Аудио #2
Идентификатор : 3
Формат : AC-3
Формат/Информация : Audio Coding 3
Расширение режима : CM (complete main)
Параметр Endianness формата : Big
Идентификатор кодека : A_AC3
Продолжительность : 1 ч. 36 м.
Вид битрейта : Постоянный
Битрейт : 640 Кбит/сек
Каналы : 6 каналов
Расположение каналов : Front: L C R, Side: L R, LFE
Частота : 48,0 КГц
Битовая глубина : 16 бит
Метод сжатия : С потерями
Размер потока : 441 Мбайт (7%)
Заголовок : AC3 5.1 ch 640 kbps DVO Видеосервис
Язык : Russian
Default : Нет
Forced : Нет

Аудио #3
Идентификатор : 4
Формат : AC-3
Формат/Информация : Audio Coding 3
Расширение режима : CM (complete main)
Параметр Endianness формата : Big
Идентификатор кодека : A_AC3
Продолжительность : 1 ч. 36 м.
Вид битрейта : Постоянный
Битрейт : 640 Кбит/сек
Каналы : 6 каналов
Расположение каналов : Front: L C R, Side: L R, LFE
Частота : 48,0 КГц
Битовая глубина : 16 бит
Метод сжатия : С потерями
Размер потока : 441 Мбайт (7%)
Заголовок : AC3 5.1 ch 640 kbps DVO П.Гланц и И.Королёва
Язык : Russian
Default : Нет
Forced : Нет

Аудио #4
Идентификатор : 5
Формат : AC-3
Формат/Информация : Audio Coding 3
Расширение режима : CM (complete main)
Параметр Endianness формата : Big
Идентификатор кодека : A_AC3
Продолжительность : 1 ч. 36 м.
Вид битрейта : Постоянный
Битрейт : 640 Кбит/сек
Каналы : 6 каналов
Расположение каналов : Front: L C R, Side: L R, LFE
Частота : 48,0 КГц
Битовая глубина : 16 бит
Метод сжатия : С потерями
Размер потока : 441 Мбайт (7%)
Заголовок : AC3 5.1 ch 640 kbps VO Василий Горчаков
Язык : Russian
Default : Нет
Forced : Нет

Аудио #5
Идентификатор : 6
Формат : AC-3
Формат/Информация : Audio Coding 3
Расширение режима : CM (complete main)
Параметр Endianness формата : Big
Идентификатор кодека : A_AC3
Продолжительность : 1 ч. 36 м.
Вид битрейта : Постоянный
Битрейт : 192 Кбит/сек
Каналы : 2 канала
Расположение каналов : Front: L R
Частота : 48,0 КГц
Битовая глубина : 16 бит
Метод сжатия : С потерями
Размер потока : 132 Мбайт (2%)
Заголовок : AC3 2 ch 192 kbps MVO НТВ+ Н. Казначеева, С. Старикова и А. Симанов
Язык : Russian
Default : Нет
Forced : Нет

Аудио #6
Идентификатор : 7
Формат : AC-3
Формат/Информация : Audio Coding 3
Расширение режима : CM (complete main)
Параметр Endianness формата : Big
Идентификатор кодека : A_AC3
Продолжительность : 1 ч. 36 м.
Вид битрейта : Постоянный
Битрейт : 192 Кбит/сек
Каналы : 2 канала
Расположение каналов : Front: L R
Частота : 48,0 КГц
Битовая глубина : 16 бит
Метод сжатия : С потерями
Размер потока : 132 Мбайт (2%)
Заголовок : AC3 2 ch 192 kbps DVO СТС
Язык : Russian
Default : Нет
Forced : Нет

Аудио #7
Идентификатор : 8
Формат : AC-3
Формат/Информация : Audio Coding 3
Расширение режима : CM (complete main)
Параметр Endianness формата : Big
Идентификатор кодека : A_AC3
Продолжительность : 1 ч. 36 м.
Вид битрейта : Постоянный
Битрейт : 192 Кбит/сек
Каналы : 2 канала
Расположение каналов : Front: L R
Частота : 48,0 КГц
Битовая глубина : 16 бит
Метод сжатия : С потерями
Размер потока : 132 Мбайт (2%)
Заголовок : AC3 2 ch 192 kbps VO Вартан Дохалов
Язык : Russian
Default : Нет
Forced : Нет

Аудио #8
Идентификатор : 9
Формат : AC-3
Формат/Информация : Audio Coding 3
Расширение режима : CM (complete main)
Параметр Endianness формата : Big
Идентификатор кодека : A_AC3
Продолжительность : 1 ч. 36 м.
Вид битрейта : Постоянный
Битрейт : 640 Кбит/сек
Каналы : 6 каналов
Расположение каналов : Front: L C R, Side: L R, LFE
Частота : 48,0 КГц
Битовая глубина : 16 бит
Метод сжатия : С потерями
Размер потока : 441 Мбайт (7%)
Заголовок : AC3 5.1 ch 640 kbps
Язык : English
Default : Нет
Forced : Нет

Текст #1
Идентификатор : 10
Формат : UTF-8
Идентификатор кодека : S_TEXT/UTF8
Идентификатор кодека/Информация : UTF-8 Plain Text
Язык : Russian
Default : Нет
Forced : Нет

Текст #2
Идентификатор : 11
Формат : UTF-8
Идентификатор кодека : S_TEXT/UTF8
Идентификатор кодека/Информация : UTF-8 Plain Text
Заголовок : SRT
Язык : English
Default : Нет
Forced : Нет

Текст #3
Идентификатор : 12
Формат : PGS
Режим смешивания : zlib
Идентификатор кодека : S_HDMV/PGS
Идентификатор кодека/Информация : The same subtitle format used on BDs/HD-DVDs
Заголовок : PGS
Язык : English
Default : Нет
Forced : Нет

Меню
00:00:00.000 : en:00:00:00.000
00:08:40.937 : en:00:08:40.937
00:14:01.466 : en:00:14:01.466
00:20:20.010 : en:00:20:20.010
00:26:46.480 : en:00:26:46.480
00:32:11.596 : en:00:32:11.596
00:36:44.077 : en:00:36:44.077
00:43:59.595 : en:00:43:59.595
00:48:04.298 : en:00:48:04.298
00:54:18.630 : en:00:54:18.630
01:01:23.346 : en:01:01:23.346
01:06:03.168 : en:01:06:03.168
01:08:22.724 : en:01:08:22.724
01:14:39.850 : en:01:14:39.850
01:21:30.344 : en:01:21:30.344
01:29:10.554 : en:01:29:10.554
Скриншоты:


Время раздачи: 14:00 до 00:00
[NNM-Club.ru]_Hocus.Pocus.1993.720p.BluRay.7xRus.Eng.HDCLUB.mkv.torrent
 Торрент: Платиновая раздача  Зарегистрирован
 
Скачать


 Зарегистрирован:   11 Ноя 2012 19:51:16
 Размер:   6,39 GB  (
 Рейтинг:   4,7 (Голосов: 43)
 Поблагодарили:   122
 Проверка:   Оформление проверено модератором 11 Ноя 2012 20:55:31
Как cкачать  ·  Как раздать  ·  Правильно оформить  ·  Поднять ратио!  
VeprNC
Стаж: 7 лет 10 мес.
Сообщений: 10
Ratio: 1850,575
2.44%
Hocus Pocus & Bette Midler - моя любовь!..
трезорыч
Стаж: 7 лет 2 мес.
Сообщений: 2713
Ratio: 76,198
100%
Откуда: Из Интернета
russia.gif
Спасибо ! Хорошая сказочка ! Ведьмочка
golaido
Стаж: 7 лет 8 мес.
Сообщений: 27
Ratio: 3,749
100%
раздача будет?
Показать сообщения:   
Начать новую тему   Ответить на тему    Торрент-трекер NNM-Club -> Зарубежное кино -> Зарубежные Фильмы (HD, UHD-LQ) Часовой пояс: GMT + 3
Страница 1 из 1