Классический форум-трекер
canvas not supported
Нас вместе: 4 093 214

Остаться в живых / Lost [сезон 1, 25 серий из 25] (2004) [720p] BDRip [EN]


 
 
RSS
Начать новую тему   Ответить на тему    Торрент-трекер NNM-Club -> Зарубежные сериалы -> Сериалы без перевода
Автор Сообщение
kucheryavsky ®
Стаж: 9 лет
Сообщений: 4
Ratio: 68,323
Поблагодарили: 184
100%
Остаться в живых / Lost [сезон 1, 25 серий из 25] (2004) [720p] BDRip [EN]
Русское название: Остаться в живых
Оригинальное название: Lost
Год выпуска: 2004
Жанр: Фантастика, Триллер, Приключения

Перевод: Отсутствует
Язык: Английский
Вид субтитров: Отсутствуют


Дата мировой премьеры: 22.09.2004
Дата российской премьеры: 10.07.2005

Режиссер: Джек Бендер, Стивен Уильямс, Таккер Гейтс, Грег Яйтанс, Кевин Хукс, Джей Джей Абрамс
Актеры: Мэттью Фокс, Эванджелин Лилли, Джош Холлоуэй, Терри О’Куинн, Нэвин Эндрюс, Хорхе Гарсиа, Майкл Эмерсон, Эмили де Рэйвин, Дэниэл Дэ Ким, Ким Юн Джин, Доминик Монахэн, Генри Йен Кьюсик, Хэролд Перрино, Элизабет Митчелл, Кен Люн

Описание фильма:
Красавец-лайнер, совершающий полет из Сиднея в Лос-Анджелес, неожиданно терпит крушение. 48 пассажиров, оставшихся в живых, оказываются на пустынном острове посреди океана. Люди в панике. Надежда быть найденными довольно призрачна. Поэтому остается только одно: собраться с силами и постараться выжить на острове, начиненном множеством опасностей…

Продолжительность: 25 x ~00:42
Качество видео: BDRip

Видеокодек: MPEG-4 AVC/H.264
Битрейт видео: ~2548 кбит/с
Размер кадра: 1280x720
Аудиокодек: AC3 5.1
Битрейт аудио: 640 кбит/с
Общее
Уникальный идентификатор : 238052329946880912777880273587078514676 (0xB3173607DEB0684EB4F16739077D47F4)
Полное имя : D:\Video2\LOST\Lost.Season 1.720p.BluRay.x264\Lost.S01E01 'Pilot Part 1'.mkv
Формат : Matroska
Версия формата : Version 2
Размер файла : 985 Мбайт
Продолжительность : 42 м.
Режим общего битрейта : Переменный
Общий поток : 3252 Кбит/сек
Название фильма : Lost S01E01
Дата кодирования : UTC 2010-01-26 22:45:20
Программа кодирования : mkvmerge v3.0.0 ('Hang up your Hang-Ups') built on Dec 12 2009 15:20:35
Библиотека кодирования : libebml v0.7.9 + libmatroska v0.8.1

Видео
Идентификатор : 1
Формат : AVC
Формат/Информация : Advanced Video Codec
Профиль формата : High@L4.0
Параметр CABAC формата : Да
Параметр ReFrames формата : 3 кадра
Идентификатор кодека : V_MPEG4/ISO/AVC
Продолжительность : 42 м.
Вид битрейта : Переменный
Битрейт : 2548 Кбит/сек
Максимальный битрейт : 25,0 Мбит/сек
Ширина : 1280 пикселей
Высота : 720 пикселей
Соотношение сторон : 16:9
Режим частоты кадров : Постоянный
Частота кадров : 23,976 кадра/сек
Цветовое пространство : YUV
Субдискретизация насыщенности : 4:2:0
Битовая глубина : 8 бит
Тип развёртки : Прогрессивная
Бит/(Пиксели*Кадры) : 0.115
Размер потока : 772 Мбайт (78%)
Библиотека кодирования : x264 core 80 r1376kGIT 3feaec2
Настройки программы : cabac=1 / ref=3 / deblock=1:0:0 / analyse=0x3:0x133 / me=umh / subme=7 / psy=1 / psy_rd=1.0:0.0 / mixed_ref=1 / me_range=16 / chroma_me=1 / trellis=1 / 8x8dct=1 / cqm=0 / deadzone=21,11 / fast_pskip=1 / chroma_qp_offset=-2 / threads=12 / sliced_threads=0 / nr=0 / decimate=1 / mbaff=0 / constrained_intra=0 / bframes=3 / b_pyramid=0 / b_adapt=1 / b_bias=0 / direct=3 / wpredb=1 / wpredp=2 / keyint=240 / keyint_min=24 / scenecut=40 / rc_lookahead=40 / rc=crf / mbtree=1 / crf=22.0 / qcomp=0.60 / qpmin=10 / qpmax=51 / qpstep=4 / vbv_maxrate=25000 / vbv_bufsize=25000 / ip_ratio=1.40 / aq=1:1.00
Default : Да
Forced : Нет

Аудио
Идентификатор : 2
Формат : AC-3
Формат/Информация : Audio Coding 3
Расширение режима : CM (complete main)
Параметр Endianness формата : Big
Идентификатор кодека : A_AC3
Продолжительность : 42 м.
Вид битрейта : Постоянный
Битрейт : 640 Кбит/сек
Каналы : 6 каналов
Расположение каналов : Front: L C R, Side: L R, LFE
Частота : 48,0 КГц
Битовая глубина : 16 бит
Метод сжатия : С потерями
Размер потока : 194 Мбайт (20%)
Язык : English
Default : Да
Forced : Нет

Меню
00:00:00.000 : en:00:00:00.000
00:07:32.035 : en:00:07:32.035
00:21:16.775 : en:00:21:16.775
00:30:07.848 : en:00:30:07.848
00:39:01.965 : en:00:39:01.965
00:41:39.539 : en:00:41:39.539
Скриншоты:


Остаться в живых / Lost

Время раздачи: 24/7 - круглосуточно
[NNM-Club.ru]_Lost.Season 1.720p.BluRay.x264.torrent
 Торрент: Платиновая раздача  Зарегистрирован
 
Скачать


 Зарегистрирован:   13 Ноя 2012 20:55:18
 Размер:   27,7 GB  (
 Рейтинг:   4,8 (Голосов: 29)
 Поблагодарили:   100
 Проверка:   Оформление проверено модератором 13 Ноя 2012 23:03:34
Как cкачать  ·  Как раздать  ·  Правильно оформить  ·  Поднять ратио!  
Filin2hat
Стаж: 9 лет 5 мес.
Сообщений: 24
Ratio: 2,089
Поблагодарили: 30
3.15%
а что со скоростью?
kucheryavsky ®
Стаж: 9 лет
Сообщений: 4
Ratio: 68,323
Поблагодарили: 184
100%
честно говоря, сейчас затрудняюсь с ответом на вопрос, когда уходил из дому оставил активным один единственный торрент, ограничений быть не должно, канал навроде как позволяет; может какие премудрости раздачи - научите, ибо зелен)
verrvollf
Стаж: 10 лет 3 мес.
Сообщений: 425
Ratio: 1,306
19.54%
russia.gif
придется учит инглиш!
Lingi
Стаж: 8 лет 1 мес.
Сообщений: 2118
Ratio: 24,23
100%
Жёёёёёёёёёёёсть!
Скачала, а потом увидела, что лост без перевода!!!
Бип-бип))
Показать сообщения:   
Начать новую тему   Ответить на тему    Торрент-трекер NNM-Club -> Зарубежные сериалы -> Сериалы без перевода Часовой пояс: GMT + 3
Страница 1 из 1