Классический форум-трекер
canvas not supported
Нас вместе: 4 072 976

Амели / Le Fabuleux destin d'Amelie Poulain (2001) BDRip [H.264/1080p]


 
 
RSS
Начать новую тему   Ответить на тему    Торрент-трекер NNM-Club -> Зарубежное кино -> Зарубежные Фильмы (HD, UHD-LQ)
Автор Сообщение
maxwelex ®
Стаж: 9 лет 3 мес.
Сообщений: 346
Ratio: 222,971
Раздал: 103,5 TB
Поблагодарили: 25455
100%
Откуда: Северный Кавказ
ussr.gif
Амели / Le Fabuleux destin d'Amélie Poulain (2001) BDRip [H.264/1080p]
Производство: Франция, Германия
Жанр: Мелодрама, Драма, Комедия

Режиссер: Жан-Пьер Жёне
Актеры: Одри Тоту, Матье Кассовитц, Руфус, Лорелла Кравотта, Серж Мерлен, Жамель Деббуз, Клэр Морье, Клотильда Молле, Изабель Нанти, Пиньон Доминик

Описание:
Знаете ли вы, что все события, происходящие в нашем мире, даже самые незначительные, взаимосвязаны самым удивительным и чудесным образом?
Как полет крошечной мухи может вызвать где-то далеко мощный ураган, так и странные и, на первый взгляд, непонятные поступки тихой и одинокой девушки, живущей в мире своих фантазий, могут навсегда изменить жизнь совершенно разных людей, подарив им счастье и раскрасив окружающий мир яркими, головокружительными красками. Эту девушку зовут Амели Пулен.


Возраст: 16+ (зрителям, достигшим 16 лет)
Рейтинг MPAA: R (лицам до 17 лет обязательно присутствие взрослого)

Продолжительность: 02:01:35
Качество видео: BDRip 1080p
Перевод: Профессиональный дубляж, Авторский одноголосый закадровый
Субтитры: Русские, английские, французские

Видео: AVC/H.264, 1920x818, ~15,5 Mbps
Аудио #1: AC3 5.1, 384 Kbps - Русский дубляж
Аудио #2: DTS 5.1, 755 Kbps - Русский Авторский (П.Карцев)
Аудио #3: DTS 5.1, 1510 Kbps - Французский
Аудио #4: AC3 1.0, 192 Kbps - Русский, Комментарии создателей фильма
Общее
Уникальный идентификатор : 224934735433330827394521542986972544316 (0xA938DAB02743D00F8B2BECAADA603D3C)
Полное имя : E:\Амели (Le Fabuleux Destin d'Amelie Poulain).2001.BDRip.1080p.-CtrlHD.mkv
Формат : Matroska
Версия формата : Version 2
Размер файла : 15,6 Гбайт
Продолжительность : 2 ч. 1 м.
Общий поток : 18,3 Мбит/сек
Название фильма : Le Fabuleux destin d'Amélie Poulain (2001)
Дата кодирования : UTC 2011-12-23 15:53:08
Программа кодирования : mkvmerge v5.2.0 ('I can't explain') built on Dec 18 2011 18:12:03
Библиотека кодирования : libebml v1.2.3 + libmatroska v1.3.0
Attachment : Yes / Yes / Yes / Yes / Yes

Видео
Идентификатор : 1
Формат : AVC
Формат/Информация : Advanced Video Codec
Профиль формата : High@L4.1
Параметр CABAC формата : Да
Параметр ReFrames формата : 5 кадров
Идентификатор кодека : V_MPEG4/ISO/AVC
Продолжительность : 2 ч. 1 м.
Битрейт : 15,5 Мбит/сек
Ширина : 1920 пикселей
Высота : 818 пикселей
Соотношение сторон : 2,35:1
Режим частоты кадров : Постоянный
Частота кадров : 23,976 кадра/сек
Цветовое пространство : YUV
Субдискретизация насыщенности : 4:2:0
Битовая глубина : 8 бит
Тип развёртки : Прогрессивная
Бит/(Пиксели*Кадры) : 0.412
Размер потока : 12,8 Гбайт (83%)
Библиотека кодирования : x264 core 119 r2106 07efeb4
Настройки программы : cabac=1 / ref=5 / deblock=1:-3:-3 / analyse=0x3:0x133 / me=tesa / subme=10 / psy=1 / psy_rd=1.10:0.05 / mixed_ref=1 / me_range=48 / chroma_me=1 / trellis=2 / 8x8dct=1 / cqm=0 / deadzone=21,11 / fast_pskip=0 / chroma_qp_offset=-3 / threads=15 / sliced_threads=0 / nr=0 / decimate=1 / interlaced=0 / bluray_compat=0 / constrained_intra=0 / bframes=10 / b_pyramid=2 / b_adapt=2 / b_bias=0 / direct=3 / weightb=1 / open_gop=0 / weightp=2 / keyint=250 / keyint_min=23 / scenecut=40 / intra_refresh=0 / rc_lookahead=60 / rc=2pass / mbtree=1 / bitrate=15500 / ratetol=1.0 / qcomp=0.70 / qpmin=0 / qpmax=69 / qpstep=4 / cplxblur=20.0 / qblur=0.5 / vbv_maxrate=40000 / vbv_bufsize=30000 / nal_hrd=none / ip_ratio=1.40 / aq=1:0.70
Язык : English
Default : Да
Forced : Нет

Аудио #1
Идентификатор : 2
Формат : AC-3
Формат/Информация : Audio Coding 3
Расширение режима : CM (complete main)
Параметр Endianness формата : Big
Идентификатор кодека : A_AC3
Продолжительность : 2 ч. 1 м.
Вид битрейта : Постоянный
Битрейт : 384 Кбит/сек
Каналы : 6 каналов
Расположение каналов : Front: L C R, Side: L R, LFE
Частота : 48,0 КГц
Битовая глубина : 16 бит
Метод сжатия : С потерями
Размер потока : 334 Мбайт (2%)
Заголовок : AC3 5.1 @ 384 kbps |Dub|
Язык : Russian
Default : Да
Forced : Нет

Аудио #2
Идентификатор : 3
Формат : DTS
Формат/Информация : Digital Theater Systems
Идентификатор кодека : A_DTS
Продолжительность : 2 ч. 1 м.
Вид битрейта : Постоянный
Битрейт : 755 Кбит/сек
Каналы : 6 каналов
Расположение каналов : Front: L C R, Side: L R, LFE
Частота : 48,0 КГц
Битовая глубина : 24 бит
Метод сжатия : С потерями
Задержка видео : 4 мс.
Размер потока : 656 Мбайт (4%)
Заголовок : DTS 5.1 @ 768 kbps |Karzev|
Язык : Russian
Default : Нет
Forced : Нет

Аудио #3
Идентификатор : 4
Формат : DTS
Формат/Информация : Digital Theater Systems
Идентификатор кодека : A_DTS
Продолжительность : 2 ч. 1 м.
Вид битрейта : Постоянный
Битрейт : 1510 Кбит/сек
Каналы : 6 каналов
Расположение каналов : Front: L C R, Side: L R, LFE
Частота : 48,0 КГц
Битовая глубина : 16 бит
Метод сжатия : С потерями
Размер потока : 1,28 Гбайт (8%)
Заголовок : DTS 5.1 @ 1536 kbps
Язык : French
Default : Нет
Forced : Нет

Аудио #4
Идентификатор : 5
Формат : AC-3
Формат/Информация : Audio Coding 3
Расширение режима : CM (complete main)
Параметр Endianness формата : Big
Идентификатор кодека : A_AC3
Продолжительность : 2 ч. 1 м.
Вид битрейта : Постоянный
Битрейт : 192 Кбит/сек
Каналы : 1 канал
Расположение каналов : Front: C
Частота : 48,0 КГц
Битовая глубина : 16 бит
Метод сжатия : С потерями
Задержка видео : 4 мс.
Размер потока : 167 Мбайт (1%)
Заголовок : AC3 1.0 @ 192 kbps |Commentary|
Язык : Russian
Default : Нет
Forced : Нет

Текст #1
Идентификатор : 6
Формат : UTF-8
Идентификатор кодека : S_TEXT/UTF8
Идентификатор кодека/Информация : UTF-8 Plain Text
Язык : Russian
Default : Нет
Forced : Нет

Текст #2
Идентификатор : 7
Формат : ASS
Идентификатор кодека : S_TEXT/ASS
Идентификатор кодека/Информация : Advanced Sub Station Alpha
Метод сжатия : Без потерь
Язык : English
Default : Нет
Forced : Нет

Текст #3
Идентификатор : 8
Формат : UTF-8
Идентификатор кодека : S_TEXT/UTF8
Идентификатор кодека/Информация : UTF-8 Plain Text
Язык : French
Default : Да
Forced : Нет

Меню
00:00:00.000 : en:Chapter 1
00:08:51.406 : en:Chapter 2
00:21:17.067 : en:Chapter 3
00:38:45.573 : en:Chapter 4
00:47:21.380 : en:Chapter 5
00:57:06.506 : en:Chapter 6
01:11:08.764 : en:Chapter 7
01:17:06.872 : en:Chapter 8
01:25:15.235 : en:Chapter 9
01:32:21.369 : en:Chapter 10
01:44:57.666 : en:Chapter 11
01:51:26.054 : en:Chapter 12
Скриншоты:

Все одноименные релизы в Клубе
[b]Время раздачи: с 10:00 до 24:00 ежедневно
[NNM-Club.ru]_Ameli (Le Fabuleux Destin d'Amelie Poulain).2001.BDRip.1080p.-CtrlHD.mkv.torrent
 Торрент: Платиновая раздача  Зарегистрирован
 
Скачать


Примагнититься
 Зарегистрирован:   28 Янв 2019 08:38:50
 Размер:   15,6 GB  (
 Рейтинг:   4,8 (Голосов: 122)
 Поблагодарили:   427
 Проверка:   Оформление проверено модератором 30 Янв 2019 02:53:34
Как cкачать  ·  Как раздать  ·  Правильно оформить  ·  Поднять ратио!  
deeppurple1968
Стаж: 9 лет 1 мес.
Сообщений: 494
Ratio: 51,566
Раздал: 17,1 TB
Поблагодарили: 3261
100%
Откуда: Омикрон Персея 8
ukraine.gif
Чудесный фильм!

_________________
Цифры 1968 в моём никнейме это не год рождения!
AMD FX 8300, DeepCool Ice Wind Pro, GeIL DDR3-1600 8192MB Black Dragon, ASUS Radeon RX580 OC 8GB, SSD Samsung 860 EVO 500GB + HDD Western Digital Blue 1000GB, ASUS M5A97 R2.0, БП Gamemax GM-700, Windows 10 Pro x64, DeepCool Kendomen RD.
Pisheneg
Стаж: 7 лет 6 мес.
Сообщений: 272
Ratio: 67,303
Поблагодарили: 754
100%
Откуда: Пришелец из космоса
pirates.png
Люблю этот фильм =)
usan
 
Стаж: 9 лет 5 мес.
Сообщений: 1076
Ratio: 2,052
Поблагодарили: 1237
100%
ussr.gif
хороший фильм
Mr_Romizz
Стаж: 8 лет
Сообщений: 1529
Ratio: 2,625
100%
Откуда: Санкт-Петербург
russia.gif
а вот этот фильм я просто ОБОЖАЮ ) спасибо раздающему
Surround
Стаж: 11 лет 9 мес.
Сообщений: 85
Ratio: 9,676
Поблагодарили: 443
100%
ussr.gif
Музыка на 5, девочка прикольная, но суть фильма я так и не понял :) может позже)
babyin4ik
Стаж: 3 года 9 мес.
Сообщений: 3
Ratio: 2,361
5.33%
Будьте добры, встаньте на раздачу. Спасибо.
afatango
Стаж: 6 лет 10 мес.
Сообщений: 10
Ratio: 2,88
53.62%
Спасибо, фильм прекрасен. Это лучшая роль Одри, и к сожалению, единственная, где она хороша.
yluacher
Стаж: 8 лет 2 мес.
Сообщений: 100
Ratio: 36,758
100%
witch.png
отличный и очень милый фильм :поцелуй:
RAZOR9280
Стаж: 5 лет
Сообщений: 23
Ratio: 2,394
100%
ukraine.gif
Шедевр.
Mitj1970
Стаж: 7 лет 2 мес.
Сообщений: 160
Ratio: 23,861
84.64%
Откуда: Томская обл. г.Северск
russia.gif
Спасибо за фильм!! качаю!!!!
baggerr
Стаж: 6 лет 11 мес.
Сообщений: 89
Ratio: 29,709
100%
ukraine.gif
Поддерживаю.
Показать сообщения:   
Начать новую тему   Ответить на тему    Торрент-трекер NNM-Club -> Зарубежное кино -> Зарубежные Фильмы (HD, UHD-LQ) Часовой пояс: GMT + 3
Страница 1 из 1