Классический форум-трекер
canvas not supported
Нас вместе: 4 083 934
Платим за отзывы

Илья Олейников. Трагедия грустного клоуна (2012.11.14) SATRip


Страницы:  1, 2, 3  След. 
 
RSS
Начать новую тему   Ответить на тему    Торрент-трекер NNM-Club -> Документалистика и Телепередачи -> Посвящение искусству
Автор Сообщение
svlesin ®
Модератор Документалистики/TV
RG Releasers
Релизер 25000+ Uploader 300+
 
Стаж: 10 лет
Сообщений: 33793
Ratio: 1780,713
Поблагодарили: 3250556
100%
russia.gif
Илья Олейников. Трагедия грустного клоуна (2012.11.14) SATRip
Режиссер / Телекомпания: РЕН
Русское название: Илья Олейников. Трагедия грустного клоуна
Год выпуска: 2012
Жанр: Документальный

Описание:
Ушел из жизни актёр Илья Олейников. Это произошло 11 ноября в больнице Петербурга. Сердце остановилось в четыре утра. Масштаб подобных потерь осмысливается не сразу, как и сила, которой такие люди обогащают наш национальный характер. Подумайте, он смешил нас десятки лет и этим делал всех добрее. Ни одной пошлости и тем более столь привычной в этом жанре скабрезности. Олейников являл изысканное чувство юмора, пример возвышающей самоиронии и благородной теплоты. Таких людей нужно показывать другим в воспитательных целях. Эта программа посвящена ему. Знакомы, друзья и родственики поделяться тем, каким будут помнить своего Илюшу...

Продолжительность: ~ 00:48:12

Видеокодек: DviX
Битрейт видео: ~1499 kb/s
Размер кадра: 720 x 400
Качество видео: SATRip
Аудиокодек: MP3, 2ch.
Битрейт аудио: 128 kb/s
Формат : AVI
Формат/Информация : Audio Video Interleave
Размер файла : 568 Мбайт
Продолжительность : 48 м.
Общий поток : 1637 Кбит/сек
Программа кодирования : VirtualDubMod 1.5.10.3 (build 2550/release)
Библиотека кодирования : VirtualDubMod build 2550/release

Видео
Идентификатор : 0
Формат : MPEG-4 Visual
Параметр BVOP формата : 1
Параметр QPel формата : Нет
Параметр GMC формата : Без точки перехода
Параметр матрицы формата : Default (H.263)
Режим смешивания : Сжатый битовый поток
Идентификатор кодека : DX50
Идентификатор кодека/Подсказка : DivX 5
Продолжительность : 48 м.
Битрейт : 1499 Кбит/сек
Ширина : 720 пикселей
Высота : 400 пикселей
Соотношение сторон : 16:9
Частота кадров : 25,000 кадров/сек
Цветовое пространство : YUV
Субдискретизация насыщенности : 4:2:0
Битовая глубина : 8 бит
Тип развёртки : Прогрессивная
Метод сжатия : С потерями
Бит/(Пиксели*Кадры) : 0.208
Размер потока : 520 Мбайт (92%)
Библиотека кодирования : DivX 6.8.5 (UTC 2009-08-20)

Аудио
Идентификатор : 1
Формат : MPEG Audio
Версия формата : Version 1
Профиль формата : Layer 3
Режим : Joint stereo
Расширение режима : MS Stereo
Идентификатор кодека : 55
Идентификатор кодека/Подсказка : MP3
Продолжительность : 48 м.
Вид битрейта : Постоянный
Битрейт : 128 Кбит/сек
Каналы : 2 канала
Частота : 48,0 КГц
Метод сжатия : С потерями
Размер потока : 44,4 Мбайт (8%)
Выравнивание : Разделение по промежуткам
Продолжительность промежутка : 40 мс. (1,00 видеокадр)
Время предзагрузки промежутка : 500 мс.
Скриншоты:

Время раздачи: 24/7. До первых 5 скачавших.
Rip by Shuriman
[NNM-Club.ru]_Il'ya Oleynikov. Tragediya grustnogo klouna (2012.11.14).avi.torrent
 Торрент: Платиновая раздача  Зарегистрирован
 
Скачать


Примагнититься
 Зарегистрирован:   15 Ноя 2012 07:19:33
 Размер:   565 MB  (
 Рейтинг:   4,9 (Голосов: 114)
 Поблагодарили:   323
 Проверка:   Оформление проверено модератором 15 Ноя 2012 07:19:58
Как cкачать  ·  Как раздать  ·  Правильно оформить  ·  Поднять ратио!  

_________________
Уважаемые пользователи Клуба! От меня релизов больше не будет. Может быть, буду поддерживать «Обновляемые раздачи». Спасибо всем, кто благодарил меня и говорил/нажимал «Спасибо»!
Loading...
Andrey075
Стаж: 11 лет 11 мес.
Сообщений: 66
Ratio: 74,301
Поблагодарили: 808
100%
Откуда: Набережные Челны
russia.gif
Вечная память.
юрчил
Стаж: 8 лет 8 мес.
Сообщений: 649
Ratio: 0,574
Раздал: 388 GB
100%
Откуда: кемерово
russia.gif
Земля будет пухом

_________________
Спасибо всей команде nnm-club
AlexKoba88
Стаж: 7 лет 2 мес.
Сообщений: 20
Ratio: 5,244
94.28%
russia.gif
Помним, любим, скорбим. Царство небесное тебе Илья. http://gorodok.tv/ Книга соболезнований.
degtar 2012
Стаж: 8 лет 9 мес.
Сообщений: 30
Ratio: 8,417
Раздал: 4,469 TB
Поблагодарили: 1
100%
Откуда: Мама родила
ukraine.gif
Классный был мужик, пришло его время отдыха.
mikgrek
 
Стаж: 8 лет 4 мес.
Сообщений: 163
Ratio: 2,622
100%
russia.gif
Царствие Небесное!
BOBAHZVER
Стаж: 8 лет
Сообщений: 5
Ratio: 20,842
1.75%
ПУСТЬ ЗЕМЛЯ БУДЕТ ПУХОМ ИЛЬЯ
Pisheneg
Стаж: 8 лет
Сообщений: 272
Ratio: 67,303
Поблагодарили: 772
100%
Откуда: Пришелец из космоса
pirates.png
Очень жаль.. :(
Не будет больше Городка... Эх..
GIPERBOREY
 
Стаж: 9 лет 8 мес.
Сообщений: 464
Ratio: 46,618
100%
Откуда: Гиперборея, Неврия.
russia.gif
Вечная память.

_________________
kirill.nord
Стаж: 10 лет 8 мес.
Сообщений: 19
Ratio: 9,441
100%
Откуда: Россия
russia.gif
Жаль. Очень жаль. Спасибо Вам Илья.
fantom030
Стаж: 9 лет 7 мес.
Сообщений: 110
Ratio: 17,301
100%
russia.gif
Очень жаль. Когда умирают такие люди, кажется что умирает частица самого себя. Вечная память.
Wit-13
Стаж: 9 лет 11 мес.
Сообщений: 43
Ratio: 74,271
Раздал: 56,51 TB
Поблагодарили: 97
100%
Откуда: Kyiv
ukraine.gif
Жаль, что такие мэтры покидают нас.

Фильм никакой.
Тяп-ляп на скорую руку, абы слепить.
Darkus3000
Стаж: 8 лет 10 мес.
Сообщений: 666
Ratio: 8,317
Поблагодарили: 57
100%
Откуда: Энгельс
russia.gif
Пусть земля ему будет пухом...
игорь 77
Стаж: 8 лет 11 мес.
Сообщений: 1123
Ratio: 142,251
100%
russia.gif
Царствие небесное. Пусть земля будет пухом. Хороший человек был, очень жалко.

_________________
Toxa73
Стаж: 9 лет 8 мес.
Сообщений: 12
Ratio: 3,374
7.78%
Откуда: Mосква
russia.gif
Пусть Господь простит ему все грехи - вольные и невольные! - и дарует ему Царствие Небесное! Вечная память!!!
Показать сообщения:   
Начать новую тему   Ответить на тему    Торрент-трекер NNM-Club -> Документалистика и Телепередачи -> Посвящение искусству Часовой пояс: GMT + 3
Страницы:  1, 2, 3  След.
Страница 1 из 3