Классический форум-трекер
canvas not supported
Нас вместе: 4 094 422

Золушка (2002) DVDRip [Мюзикл]


 
 
RSS
Начать новую тему   Ответить на тему    Торрент-трекер NNM-Club -> Театр и Музыкальное видео -> Опера, Балет, Мюзиклы
Автор Сообщение
Energetik ®
Стаж: 12 лет 8 мес.
Сообщений: 317
Ratio: 2,183
Поблагодарили: 619
2.89%
Откуда: Оттуда
russia.gif
Золушка (Семен Горов) [2002, Мюзикл / музыкальный, DVDRip]

Жанр: Мюзикл / музыкальный

Режиссер: Семен Горов
Актеры:
В ролях: Юлия Маврина (...Золушка), Николай Басков (...Принц), Валерий Леонтьев (...Король), Андрей Данилко (...Брунгильда), Валерий Меладзе (...Часовщик), Лолита Милявская (...Мачеха), Лариса Долина (...Крестная-Фея), Олег Скрипка (...Лютнист), Георгий Дрозд, Владимир Горянский, Виталий Линецкий, Ольга Сумская (...Княгиня), Надежда Грановская (...принцесса), Алена Винницкая (...принцесса), Анна Седакова (...принцесса), Таисия Повалий (...Сваха).

Описание:
Этот фильм не похож ни на классическую "Золушку" советского кино, ни на голливудскую "Синдереллу". Веселая история о прекрасной Золушке, которой так нелегко приходится в жизни из-за самолюбивой мачехи и глупых сестер. Встреча с Принцем на королевском балу - самый волнующий момент фильма, после чего жизнь Золушки становится похожей на сказку.А среди жителей этого сказочного королевства можно без труда найти много хороших знакомых. Непредсказуемые рокировки персонажей, талантливая режиссура, оригинальные костюмы, великолепная музыка. Самые яркие звезды украинской и российской эстрады в фееричной музыкальной комедии, в истории обыкновнной девушки, известной теперь всему миру.



Продолжительность: 2:00
Видеокодек: DivX 5
Битрейт видео: 1343 kb/s
Размер кадра: 720x576
Качество видео: DVDRip
Битрейт аудио: 48000 Гц, 5 каналов, 224 Кбит/сек
Перевод: Оригинальный, русский
Код: выделить все
Общее
Полное имя                               : Zolushka[nnm-club.me]\Zolushka.1.avi
Формат                                   : AVI
Формат/Информация                        : Audio Video Interleave
Размер файла                             : 585 Мбайт
Продолжительность                        : 51 м. 39 с.
Общий поток                              : 1584 Кбит/сек
Программа кодирования                    : VirtualDubMod 1.4.13
Библиотека кодирования                   : VirtualDub build 14328/release
Авторское право                          : Drt.

Видео
Идентификатор                            : 0
Формат                                   : MPEG-4 Visual
Параметр BVOP формата                    : Нет
Параметр QPel формата                    : Нет
Параметр GMC формата                     : Без точки перехода
Параметр матрицы формата                 : Default (H.263)
Идентификатор кодека                     : DX50
Идентификатор кодека/Подсказка           : DivX 5
Продолжительность                        : 51 м. 39 с.
Битрейт                                  : 1350 Кбит/сек
Номинальный битрейт                      : 8000 Кбит/сек
Ширина                                   : 720 пикселей
Высота                                   : 576 пикселей
Соотношение сторон                       : 5:4
Частота кадров                           : 25,000 кадров/сек
Стандарт вещания                         : PAL
Цветовое пространство                    : YUV
Субдискретизация насыщенности            : 4:2:0
Битовая глубина                          : 8 бит
Тип развёртки                            : Прогрессивная
Метод сжатия                             : С потерями
Бит/(Пиксели*Кадры)                      : 0.130
Размер потока                            : 499 Мбайт (85%)
Библиотека кодирования                   : DivX 5.0.3 (UTC 2003-01-24)

Аудио
Идентификатор                            : 1
Формат                                   : AC-3
Формат/Информация                        : Audio Coding 3
Коммерческое название                    : Dolby Digital
Идентификатор кодека                     : 2000
Продолжительность                        : 51 м. 39 с.
Вид битрейта                             : Постоянный
Битрейт                                  : 224 Кбит/сек
Каналы                                   : 6 каналов
ChannelLayout                            : L R C LFE Ls Rs
Частота                                  : 48,0 КГц
Частота кадров                           : 31,250 кадров/сек (1536 SPF)
Битовая глубина                          : 16 бит
Метод сжатия                             : С потерями
Размер потока                            : 82,8 Мбайт (14%)
Выравнивание                             : Разделение по промежуткам
Продолжительность промежутка             : 40  мс. (1,00 видеокадр)
Время предзагрузки промежутка            : 500  мс.
ServiceKind/String                       : Complete Main
Скриншоты:


Время раздачи: пока круглосуточно =)

От себя скажу, что звук тиховат, но на полной громкости всё ок =)

Добавлено спустя 9 минут 4 секунды:

Если кто захочет, то могу потом и Женитьбу Фигаро с Киркоровым, выложить =)
Zolushka[nnm-club.ru].torrent
 Торрент: Платиновая раздача  Зарегистрирован
 
Скачать


Примагнититься
 Зарегистрирован:   27 Ноя 2019 09:30:35
 Размер:   1,25 GB  (
 Рейтинг:   4,9 (Голосов: 71)
 Поблагодарили:   327
 Проверка:   Оформление проверено модератором 27 Ноя 2019 09:33:40
Как cкачать  ·  Как раздать  ·  Правильно оформить  ·  Поднять ратио!  

_________________
Хороший довод лучше сотни мнений.
(c) My
Гость
Было бы здорово если б выложили Женитьбу Фигаро с ... Данилко ,
спасибо!
svetlana vdovkina
Стаж: 10 лет 5 мес.
Сообщений: 8
Ratio: 3,71
Поблагодарили: 40
100%
russia.gif
А "За двумя зайцами" с Галкиным и Пугачёвой нет? Если есть, то выложите,пожалуйста!!!!!!!!! Давно ищу.
Haron1
Стаж: 11 лет 5 мес.
Сообщений: 573
Ratio: 15,533
Раздал: 33,82 TB
100%
ukraine.gif
станьте кто-нить на раздачу... жена моск пилит... :(
didikin
Uploaders
 
Стаж: 12 лет 6 мес.
Сообщений: 422
Ratio: 80,692
Раздал: 39,05 TB
Поблагодарили: 357
100%
ussr.gif
на раздаче.

_________________
жена: как может быть торрент скачан 28 тыс раз и ни одного сида?
snake: то фильм про японскую девочку, все кто его посмотрел - умерли.
NIKOLAICH781102
Стаж: 8 лет 11 мес.
Сообщений: 4
Ratio: 21,865
19.71%
russia.gif
А на раздачу встаньте, кто-нибудь!!!!!!!!!!!!!
Заранее СПАСИБО!!!!!!!!!!!!!!!!!!!!!!!!!!!!!!!!!!
Mult1k
Стаж: 9 лет 2 мес.
Сообщений: 15
Ratio: 18,342
100%
russia.gif
на раздаче!!!! с 10 утра до 10 ночи
resev1961
Стаж: 8 лет 10 мес.
Сообщений: 63
Ratio: 12,011
Раздал: 316 GB
29.81%
Откуда: Сибирь
russia.gif
Energetik ! Большое спасибо за "Золушку" !!! :приветствую:
То что , громкости чуть-чуть маловато - ничего страшного :подмигивание: В крайнем случае , усилок можно включить :D Главное - качество отличное !!! =)
Всем спасибо за сидирование ! :приветствую:
NorthOn
 
Админ
Стаж: 13 лет 6 мес.
Сообщений: 13315
Ratio: 1096,266
Поблагодарили: 14452
100%
nnm-club.gif
Торрент обновлен в рамках акции Включаем DHT в древних раздачах
Теперь вам нужно его скачать и открыть в торрент-клиенте, указав в качестве места сохранения раздаваемый файл или папку.

_________________
Либо я найду путь, либо проложу его...
deodatto
Талант
Стаж: 5 лет 6 мес.
Сообщений: 963
Ratio: 2,163
Поблагодарили: 3344
100%
Откуда: Николаев
Тут много известных и популярных исполнителей, но они не мешают друг другу, всё очень гармонично. Замечательный пример, как при желании можно сделать конфетку. Жаль всунули в эту сказку Green Grey, подпортили общую картину, имхо. )

_________________
Общего у людей только одно - все они очень разные..
Показать сообщения:   
Начать новую тему   Ответить на тему    Торрент-трекер NNM-Club -> Театр и Музыкальное видео -> Опера, Балет, Мюзиклы Часовой пояс: GMT + 3
Страница 1 из 1