Классический форум-трекер
canvas not supported
Нас вместе: 4 093 480

Дневники вампира / The Vаmрirе Diаriеs (Сезон 4 полный (23)) (2012) WEB-DLRip (Кубик в Кубе)


Страницы:  1, 2, 3, 4  След. 
 
RSS
Начать новую тему   Ответить на тему    Торрент-трекер NNM-Club -> Зарубежные сериалы -> Дневники вампира / Vampire Diaries ; Настоящая кровь / True Blood; Древние / Originals
Автор Сообщение
TollayaEkb ®
Стаж: 9 лет 10 мес.
Сообщений: 5745
Ratio: 2181,468
Раздал: 116,5 TB
Поблагодарили: 218642
100%
Откуда: Екб
russia.gif
Дневники вампира / The Vаmрirе Diаriеs
(Сезон 4, серии 01-23 из 23) (2012) WEB-DLRip (Кубик в Кубе)


Русское название: Дневники вампира
Оригинальное название: The Vаmрirе Diаriе
Год выхода: 2012
Производство: США, CW
Жанр: Ужасы, фэнтези, драма
Сезон: 4
Серии: 01-23 из 23 серий
Продолжительность: ~ 42:00 мин серия



Перевод: Профессиональный двухголосый закадровый - Кубик в Кубе

Режиссер: Маркос Сига
В ролях: Нина Добрев, Пол Уэсли, Йен Сомерхалдер, Катерина Грэхэм, Стивен Р. МакКуин, Бенджамин Эйрс, Стив Белфорд, Сара Каннинг, Кайла Юэлл, Марси Т. Хаус и др.


Описание:
Стефан и Елена тут же чувствуют взаимную симпатию, но Елена даже не подозревает, что Стефан — вампир, которому уже сотни лет, и который старается мирно жить среди людей, несмотря на то, что его брат, Дэймон — воплощение вампирской жестокости и кровожадности. Теперь два брата-вампира — один добрый, другой злой — ведут борьбу за души Елены, ее друзей и других жителей городка Мистик Фоллз.
4 сезон. Современные убийства в Мистик Фоллс напоминают Дэймону о схожих преступлениях, происходивших сто лет назад. Во флешбэках из 1912го года Дэймон вспоминает прекрасную вампиршу Сэйдж, которая показала ему, что жить можно совсем по-другому. Шериф Форбс предупреждает Дэймона, чтобы он не ввязывался в расследование, но он уверен, что она подозревает не того. Елена с Мэттом устраивают взлом, пытаясь найти улики против доктора Фелл, которую считают убийцей. По известным только ей самой причинам Ребекка начинает интересоваться расположением одной из старейших достопримечательностей города. Елена наконец-то начинает понимать, что ее жизнь пошла в другом направлении, а Дэймон совершает эмоциональное признание Стефану.


Качество: WEB-DLRip
Видео: Xvid, ~1100 kb/s, 624x352 (1.77:1), 23.976 fps, 0.20 bit/pixel
Аудио: 48 kHz, MPEG Layer 3, 2 ch, ~224.00 kbps avg (RU, EN)
Субтитры: русские, английские - внешние
| Сэмпл видео | Все раздачи|
\\\Vampire.Diaries.S04E06[Kubik_v_Kube]&[MEKC INFO].avi
Format : AVI
Format/Info : Audio Video Interleave
File size : 442 MiB
Duration : 42mn 15s
Overall bit rate : 1 462 Kbps
Writing application : VirtualDubMod 1.5.10.2 (build 2540/release)
Writing library : VirtualDubMod build 2540/release
Video #0
ID : 0
Format : MPEG-4 Visual
Format profile : Advanced Simple@L5
Format settings, BVOP : 1
Format settings, QPel : No
Format settings, GMC : No warppoints
Format settings, Matrix : Default (H.263)
Codec ID : XVID
Codec ID/Hint : XviD
Duration : 42mn 15s
Bit rate : 1 000 Kbps
Width : 624 pixels
Height : 352 pixels
Display aspect ratio : 16:9
Frame rate : 23.976 fps
Color space : YUV
Chroma subsampling : 4:2:0
Bit depth : 8 bits
Scan type : Progressive
Compression mode : Lossy
Bits/(Pixel*Frame) : 0.190
Stream size : 302 MiB (68%)
Writing library : XviD 65
Audio #1
ID : 1
Format : MPEG Audio
Format version : Version 1
Format profile : Layer 3
Codec ID : 55
Codec ID/Hint : MP3
Duration : 42mn 15s
Bit rate mode : Constant
Bit rate : 224 Kbps
Channel(s) : 2 channels
Sampling rate : 48.0 KHz
Compression mode : Lossy
Stream size : 67.7 MiB (15%)
Alignment : Aligned on interleaves
Interleave, duration : 42 ms (1.00 video frame)
Interleave, preload duration : 504 ms
Audio #2
ID : 2
Format : MPEG Audio
Format version : Version 1
Format profile : Layer 3
Codec ID : 55
Codec ID/Hint : MP3
Duration : 42mn 15s
Bit rate mode : Constant
Bit rate : 224 Kbps
Channel(s) : 2 channels
Sampling rate : 48.0 KHz
Compression mode : Lossy
Stream size : 67.7 MiB (15%)
Alignment : Aligned on interleaves
Interleave, duration : 42 ms (1.00 video frame)
Interleave, preload duration : 504 ms

<<<Скриншоты>>>

Время раздачи: 24/7 - круглосуточно (до первых сидов - потом по возможности)
[NNM-Club.ru]_Vampire Diaries Season 3 WEB-DLRip 352r Kybik v Kybe.torrent
 Торрент: Платиновая раздача  Зарегистрирован
 
Скачать


 Зарегистрирован:   17 Май 2013 21:29:52
 Размер:   10,9 GB  (
 Рейтинг:   4,7 (Голосов: 247)
 Поблагодарили:   782
 Проверка:   Оформление проверено модератором 17 Май 2013 21:57:42
Как cкачать  ·  Как раздать  ·  Правильно оформить  ·  Поднять ратио!  
TollayaEkb ®
Стаж: 9 лет 10 мес.
Сообщений: 5745
Ratio: 2181,468
Раздал: 116,5 TB
Поблагодарили: 218642
100%
Откуда: Екб
russia.gif
Вместо этой раздачи http://nnmclub.to/forum/viewtopic.php?t=563218
marhuzzz
Стаж: 7 лет 4 мес.
Сообщений: 2
Ratio: 11,873
0%
В названии торрент файла на 4й сезон поправте =)) [NNM-Club.ru]_Vampire Diaries Season 3 WEB-DLRip 352r Kybik v Kybe.torrent
TollayaEkb ®
Стаж: 9 лет 10 мес.
Сообщений: 5745
Ratio: 2181,468
Раздал: 116,5 TB
Поблагодарили: 218642
100%
Откуда: Екб
russia.gif
Да уже сам обратил внимание. При заливке следующей исправлю
Olala81
Стаж: 7 лет 3 мес.
Сообщений: 2
Ratio: 0,827
100%
Когда следущая???
Сергей_Ан​атольевич​
Стаж: 9 лет 10 мес.
Сообщений: 523
Ratio: 30,632
Поблагодарили: 13344
100%
Откуда: С Неба
nnm-club.gif
Olala81 писал(а): Перейти к сообщению
Когда следущая???


7 серия будет 30 ноября.

_________________
Все свои претензии в мой адрес, запишите на листочек! Сделайте самолётик… И летите нафиг! Счастливого полета Вам и Вашим пассажирам!!!
TollayaEkb ®
Стаж: 9 лет 10 мес.
Сообщений: 5745
Ratio: 2181,468
Раздал: 116,5 TB
Поблагодарили: 218642
100%
Откуда: Екб
russia.gif
Добавлена 7 серия. Перекачайте торрент
Kotyarko
Стаж: 9 лет 11 мес.
Сообщений: 59
Ratio: 2,7
32.91%
Откуда: г.Москва
russia.gif
Когда выйдет восьмая серия?
TollayaEkb ®
Стаж: 9 лет 10 мес.
Сообщений: 5745
Ratio: 2181,468
Раздал: 116,5 TB
Поблагодарили: 218642
100%
Откуда: Екб
russia.gif
Добавлена 8 серия. Перекачайте торрент.
Slim32
Стаж: 9 лет
Сообщений: 1
Ratio: 2,103
100%
не могу скачать 8ую серию...пишет: ошибка данных CRC
Oops_Smile
Стаж: 9 лет 10 мес.
Сообщений: 1543
Ratio: 52,685
Раздал: 56,63 TB
Поблагодарили: 46564
100%
Откуда: Симферополь
Slim32 писал(а): Перейти к сообщению
не могу скачать 8ую серию...пишет: ошибка данных CRC

скорее всего это у вас проблема с винчестером , точнее начало его гибели :(

_________________
Мои раздачи
TollayaEkb ®
Стаж: 9 лет 10 мес.
Сообщений: 5745
Ratio: 2181,468
Раздал: 116,5 TB
Поблагодарили: 218642
100%
Откуда: Екб
russia.gif
Добавлена серия 9. Перекачайте торрент
NoxoN
Стаж: 9 лет 6 мес.
Сообщений: 6
Ratio: 4,096
18.89%
Откуда: Донецк
ukraine.gif
когда будет 10 серия?
TollayaEkb ®
Стаж: 9 лет 10 мес.
Сообщений: 5745
Ratio: 2181,468
Раздал: 116,5 TB
Поблагодарили: 218642
100%
Откуда: Екб
russia.gif
Добавлена 10 серия. Перекачайте торрент.
Dimasssik2011
Стаж: 8 лет 5 мес.
Сообщений: 38
Ratio: 7,349
100%
Откуда: Ростов-на-Дону
russia.gif
TollayaEkb писал(а): Перейти к сообщению
Добавлена 10 серия. Перекачайте торрент.

У меня не качает :(
Показать сообщения:   
Начать новую тему   Ответить на тему    Торрент-трекер NNM-Club -> Зарубежные сериалы -> Дневники вампира / Vampire Diaries ; Настоящая кровь / True Blood; Древние / Originals Часовой пояс: GMT + 3
Страницы:  1, 2, 3, 4  След.
Страница 1 из 4