Классический форум-трекер
canvas not supported
Нас вместе: 4 093 643

Формула 1. Гран-При США. Квалификация. (2012) SATRip


 
 
RSS
Начать новую тему   Ответить на тему    Торрент-трекер NNM-Club -> Архив торрентов -> Архив Документалистики и TV
Автор Сообщение
SKVSM ®
Покровитель талантов
Uploader 100+
 
Стаж: 9 лет 4 мес.
Сообщений: 1083
Ratio: 297,808
Поблагодарили: 21431
100%
nnm-club.gif
Формула 1. Гран-При США. Квалификация. (2012) SATRip
Название: Формула 1. Гран-При США. Квалификация
Режиссер / Телекомпания: Россия,
Год выпуска: 2012
Жанр: Спорт, авто
Комментатор: Алексей Попов, Наталья Фабричнова

Описание:
В ближайшие выходные гонщикам предстоит впервые выступать на новой американской трассе в Остине. Шинная компания Pirelli позволит командам интенсивнее поработать во время пятничных сессий свободных заездов, для чего предоставит дополнительный комплект жесткой резины Hard. Для дебютной гонки на автодроме Circuit of the Americas компания Pirelli подготовила два состава шин самой высокой жесткости. По ходу сезона пара Medium-Hard использовалась трижды - в Малайзии, Бельгии и Италии. Шинники решили применить наиболее консервативный подход и в Америке, ведь первичная информация о работе резины получена лишь с помощью специальной программы симуляции. Полученные во время свободных заездов данные на сей роль будут играть более важную роль в работе с настройками и гоночной стратегией. По этой причине в Pirelli приняли решение предоставить командам по одному дополнительному комплекту жестких шин для каждого спортсмена, чтобы пилоты как можно дольше оставались на трассе. Сам трек длиной 5,515 км отличается перепадами высот, а также чередованием медленных секторов со скоростными участками. По мнению шинников, самые большие нагрузки будет испытывать боковая часть резины, а инженерам предстоит найти оптимальные настройки для эффективной реализации тяги через задние колеса на выходе из медленных поворотов.

Продолжительность: 01:04:48

Видеокодек: Xvid
Битрейт видео: 1700 Кбит/с
Размер кадра: 704 x 448
Качество видео: SATRip
Аудиокодек: MP3, 2 ch
Битрейт аудио: 128 Кбит/с

Код:

General
Complete name                            : D:\Formula1_2012_19of20_USA_Qual.avi
Format                                   : AVI
Format/Info                              : Audio Video Interleave
File size                                : 846 MiB
Duration                                 : 1h 4mn
Overall bit rate                         : 1 835 Kbps
Writing application                      : TMPGEnc Video Mastering Works 5 Version. 5.0.5.32
Writing library                          : TMPGEnc Video Mastering Works 5 Version. 5.0.5.32

Video
ID                                       : 0
Format                                   : MPEG-4 Visual
Format profile                           : Advanced Simple@L5
Format settings, BVOP                    : 2
Format settings, QPel                    : No
Format settings, GMC                     : No warppoints
Format settings, Matrix                  : Default (H.263)
Muxing mode                              : Packed bitstream
Codec ID                                 : XVID
Codec ID/Hint                            : XviD
Duration                                 : 1h 4mn
Bit rate                                 : 1 700 Kbps
Width                                    : 704 pixels
Height                                   : 448 pixels
Display aspect ratio                     : 1.571
Frame rate                               : 25.000 fps
Color space                              : YUV
Chroma subsampling                       : 4:2:0
Bit depth                                : 8 bits
Scan type                                : Progressive
Compression mode                         : Lossy
Bits/(Pixel*Frame)                       : 0.216
Stream size                              : 784 MiB (93%)
Writing library                          : XviD 1.2.1 (UTC 2008-12-04)

Audio
ID                                       : 1
Format                                   : MPEG Audio
Format version                           : Version 1
Format profile                           : Layer 3
Mode                                     : Joint stereo
Mode extension                           : MS Stereo
Codec ID                                 : 55
Codec ID/Hint                            : MP3
Duration                                 : 1h 4mn
Bit rate mode                            : Constant
Bit rate                                 : 128 Kbps
Channel(s)                               : 2 channels
Sampling rate                            : 48.0 KHz
Compression mode                         : Lossy
Stream size                              : 59.0 MiB (7%)
Alignment                                : Split accross interleaves
Interleave, duration                     : 250 ms (6.25 video frames)
Interleave, preload duration             : 221 ms
Writing library                          : LAME3.97ЄЄЄЄЄЄЄЄЄЄЄЄ


Скриншоты:




Автор рипа/записи: Galleon
Формула 1 на NoNaMe Club

Время раздачи: 24/7 Круглосуточно до 5 скачавших.
[NNM-Club.ru]_Formula1_2012_19of20_USA_Qual.avi.torrent
 Торрент: Золотая раздача  Зарегистрирован
 
Зарегистрируйтесь и скачайте торрент!
16,8 KB
Free Leech
Примагнититься
 Зарегистрирован:   18 Ноя 2012 00:40:53
 Размер:   846 MB  (
 Рейтинг:   4,6 (Голосов: 27)
 Поблагодарили:   115
 Проверка:   Оформление проверено модератором 18 Ноя 2012 17:12:59
Как cкачать  ·  Как раздать  ·  Правильно оформить  ·  Поднять ратио!  
MOHCTPuK
Стаж: 9 лет 7 мес.
Сообщений: 12
Ratio: 2,376
100%
Приветствую!
Скажите - ждать ли в ближайшие часы появления записи гонки?
SKVSM ®
Покровитель талантов
Uploader 100+
 
Стаж: 9 лет 4 мес.
Сообщений: 1083
Ratio: 297,808
Поблагодарили: 21431
100%
nnm-club.gif
MOHCTPuK писал(а): Перейти к сообщению
Приветствую!
Скажите - ждать ли в ближайшие часы появления записи гонки?

Залил Формула 1. Гран-При США. Гонка. (2012) HDTVRip
Топик был перенесен из форума Формула 1 в форум Архив Документалистики и TV

Причина переноса: Отсутствие сидов более 6 месяцев

Исправил релиз - напиши ЛС Serq, дав ссылку на релиз.
Если нет ответа 24 часа - нажми на кнопку "Обратить внимание модераторов".
Показать сообщения:   
Начать новую тему   Ответить на тему    Торрент-трекер NNM-Club -> Архив торрентов -> Архив Документалистики и TV Часовой пояс: GMT + 3
Страница 1 из 1