Классический форум-трекер
canvas not supported
Нас вместе: 4 094 045

Формула 1. Гран-При США. Гонка. (2012) HDTVRip


 
 
RSS
Начать новую тему   Ответить на тему    Торрент-трекер NNM-Club -> Архив торрентов -> Архив Документалистики и TV
Автор Сообщение
SKVSM ®
Покровитель талантов
Uploader 100+
 
Стаж: 9 лет 4 мес.
Сообщений: 1083
Ratio: 297,882
Поблагодарили: 21437
100%
nnm-club.gif
Формула 1. Гран-При США. Гонка. (2012) HDTVRip
Название: Формула 1. Гран-При США. Гонка
Режиссер / Телекомпания: Россия,
Год выпуска: 2012
Жанр: Спорт, авто
Комментатор: Алексей Попов, Наталья Фабричнова

Описание:
В ближайшие выходные гонщикам предстоит впервые выступать на новой американской трассе в Остине. Шинная компания Pirelli позволит командам интенсивнее поработать во время пятничных сессий свободных заездов, для чего предоставит дополнительный комплект жесткой резины Hard. Для дебютной гонки на автодроме Circuit of the Americas компания Pirelli подготовила два состава шин самой высокой жесткости. По ходу сезона пара Medium-Hard использовалась трижды - в Малайзии, Бельгии и Италии. Шинники решили применить наиболее консервативный подход и в Америке, ведь первичная информация о работе резины получена лишь с помощью специальной программы симуляции. Полученные во время свободных заездов данные на сей роль будут играть более важную роль в работе с настройками и гоночной стратегией. По этой причине в Pirelli приняли решение предоставить командам по одному дополнительному комплекту жестких шин для каждого спортсмена, чтобы пилоты как можно дольше оставались на трассе. Сам трек длиной 5,515 км отличается перепадами высот, а также чередованием медленных секторов со скоростными участками. По мнению шинников, самые большие нагрузки будет испытывать боковая часть резины, а инженерам предстоит найти оптимальные настройки для эффективной реализации тяги через задние колеса на выходе из медленных поворотов.

Продолжительность: 02:27:58

Видеокодек: Xvid
Битрейт видео: 2359 Кбит/с
Размер кадра: 720x400
Качество видео: HDTVRip
Аудиокодек: MP3, 2 ch
Битрейт аудио: 128 Кбит/с

Код:

General
Complete name                            : D:\Race.avi
Format                                   : AVI
Format/Info                              : Audio Video Interleave
Format profile                           : OpenDML
File size                                : 2.58 GiB
Duration                                 : 2h 27mn
Overall bit rate                         : 2 494 Kbps
Writing application                      : TMPGEnc Video Mastering Works 5 Version. 5.0.5.32
Writing library                          : TMPGEnc Video Mastering Works 5 Version. 5.0.5.32

Video
ID                                       : 0
Format                                   : MPEG-4 Visual
Format profile                           : Advanced Simple@L5
Format settings, BVOP                    : 2
Format settings, QPel                    : No
Format settings, GMC                     : No warppoints
Format settings, Matrix                  : Default (H.263)
Muxing mode                              : Packed bitstream
Codec ID                                 : XVID
Codec ID/Hint                            : XviD
Duration                                 : 2h 27mn
Bit rate                                 : 2 359 Kbps
Width                                    : 720 pixels
Height                                   : 400 pixels
Display aspect ratio                     : 16:9
Frame rate                               : 25.000 fps
Color space                              : YUV
Chroma subsampling                       : 4:2:0
Bit depth                                : 8 bits
Scan type                                : Progressive
Compression mode                         : Lossy
Bits/(Pixel*Frame)                       : 0.328
Stream size                              : 2.44 GiB (95%)
Writing library                          : XviD 1.2.1 (UTC 2008-12-04)

Audio
ID                                       : 1
Format                                   : MPEG Audio
Format version                           : Version 1
Format profile                           : Layer 3
Mode                                     : Joint stereo
Codec ID                                 : 55
Codec ID/Hint                            : MP3
Duration                                 : 2h 27mn
Bit rate mode                            : Constant
Bit rate                                 : 128 Kbps
Channel(s)                               : 2 channels
Sampling rate                            : 48.0 KHz
Compression mode                         : Lossy
Stream size                              : 135 MiB (5%)
Alignment                                : Split accross interleaves
Interleave, duration                     : 250 ms (6.25 video frames)
Interleave, preload duration             : 225 ms


Скриншоты:



Автор рипа/записи: Galleon
Формула 1 на NoNaMe Club

Время раздачи: 24/7 Круглосуточно до 5 скачавших.
[NNM-Club.ru]_Race.avi.torrent
 Торрент: Золотая раздача  Зарегистрирован
 
Зарегистрируйтесь и скачайте торрент!
13,2 KB
Free Leech
Примагнититься
 Зарегистрирован:   19 Ноя 2012 02:37:15
 Размер:   2,58 GB  (
 Рейтинг:   4,9 (Голосов: 51)
 Поблагодарили:   199
 Проверка:   Оформление проверено модератором 19 Ноя 2012 09:44:37
Как cкачать  ·  Как раздать  ·  Правильно оформить  ·  Поднять ратио!  
taras2222
Стаж: 9 лет 8 мес.
Сообщений: 236
Ratio: 48,879
100%
Откуда: Odessa
ukraine.gif
таки дождались!
wizzard2k
 
Стаж: 13 лет 1 мес.
Сообщений: 1795
Ratio: 1,808
Поблагодарили: 1841
21.05%
Откуда: Москва
jamaica.gif
спасибо

_________________

Не нравится реклама в фильмах? - Перестань скачивать и поддерживать раздачи с рекламой!
Bombardier
Стаж: 8 лет 5 мес.
Сообщений: 46
Ratio: 29,52
100%
Откуда: Ukraine
ukraine.gif
:поклоняется:
SKVSM ®
Покровитель талантов
Uploader 100+
 
Стаж: 9 лет 4 мес.
Сообщений: 1083
Ratio: 297,882
Поблагодарили: 21437
100%
nnm-club.gif
Американцы построили отличную трассу.
CapsNumLock
Стаж: 10 лет
Сообщений: 79
Ratio: 62,896
Раздал: 103,7 TB
100%
ukraine.gif
Отличная гонка получил много удовольствия,)))
автору Спасибо)))
Топик был перенесен из форума Формула 1 в форум Архив Документалистики и TV

Причина переноса: Отсутствие сидов более 6 месяцев

Исправил релиз - напиши ЛС Serq, дав ссылку на релиз.
Если нет ответа 24 часа - нажми на кнопку "Обратить внимание модераторов".
Показать сообщения:   
Начать новую тему   Ответить на тему    Торрент-трекер NNM-Club -> Архив торрентов -> Архив Документалистики и TV Часовой пояс: GMT + 3
Страница 1 из 1