Классический форум-трекер
canvas not supported
Нас вместе: 4 103 715

Неизвестные страницы жизни отца всех народов товарища Сталина (2012) TVRip


 
 
RSS
Начать новую тему   Ответить на тему    Торрент-трекер NNM-Club -> Архив торрентов -> Архив Документалистики и TV
Автор Сообщение
fictionss ®
Стаж: 9 лет 9 мес.
Сообщений: 108
Ratio: 3,387
Поблагодарили: 3363
100%
ussr.gif
Момент Истины. Неизвестные страницы жизни отца всех народов товарища Сталина (19.11.2012) TVRip
Название: Момент истины. Неизвестные страницы жизни отца всех народов товарища Сталина

Режиссер / Телекомпания: ООО "Стратегия века"
Год выпуска: 2012
Жанр: Документальный, исторический
Ведущий: Андрей Караулов

Описание:
«Момент истины» — авторская программа журналиста Андрея Караулова, в которой известные писатели, артисты, деятели культуры и политики, специалисты из разных областей обсуждают злободневные для России темы: коррупция в высших эшелонах власти, вырождение нации, наркомания среди молодежи, падение рождаемости и многие другие.
В этой программе речь пойдет о культ личности Сталина. Будут открыты новые страницы его жизни. Нам представят неизвестного Сталина, о котором расскажет его приемный сын Артем Сергеев. Эта передача дает нам возможность задуматься об истинной исторической личности Иосифа Виссарионовича, задать себе вопрос о достоверности описанной в современных мемуарах и учебниках личности Великого Вождя всех народов, услышать рассказ приемного сына о любящем отце и муже!

Участники: Артём Сергеев, Юрий Пивоваров, Владимир Лавров, Лев Колодный, Борис Соколов, Алексей Митрофанов, Юрий Бондаренко, Рамаз Чхиквадзе, Сергей Антоненко, Дмитрий Лихачёв, Ольга Аросева, Юрий Кублановский, Сергей Кургинян, Вячеслав Никонов

Продолжительность: 00:48:00

Видеокодек: MPEG-4
Битрейт видео: ~679 kb/s
Размер кадра: 470 x 382
Качество видео: TVRip
Аудиокодек: MP2
Битрейт аудио: 64 kb/s CBR
Общее
Уникальный идентификатор : 290913611648842222741098214355769252041 (0xDADBEC706C36EAC97DF8C9A9C8AC58C9)
Полное имя : H:\Видео-закачка\Телевизионные передачи\Исторические\Момент истины\Момент истины 19.11.2012.mkv
Формат : Matroska
Версия формата : Version 2
Размер файла : 263 Мбайт
Продолжительность : 48 м.
Общий поток : 759 Кбит/сек
Программа кодирования : Lavf52.50.0
Библиотека кодирования : Lavf52.50.0

Видео
Идентификатор : 1
Формат : MPEG-4 Visual
Идентификатор кодека : V_MPEG4/ISO/ASP
Идентификатор кодека/Информация : Advanced Simple Profile
Продолжительность : 48 м.
Битрейт : 679 Кбит/сек
Ширина : 470 пикселей
Высота : 382 пикселя
Соотношение сторон : 5:4
Режим частоты кадров : Постоянный
Частота кадров : 25,000 кадров/сек
Метод сжатия : С потерями
Бит/(Пиксели*Кадры) : 0.151
Размер потока : 235 Мбайт (90%)
Default : Да
Forced : Нет

Аудио
Идентификатор : 2
Формат : MPEG Audio
Версия формата : Version 2
Профиль формата : Layer 2
Идентификатор кодека : A_MPEG/L2
Идентификатор кодека/Подсказка : MP2
Продолжительность : 48 м.
Вид битрейта : Постоянный
Битрейт : 64,0 Кбит/сек
Каналы : 2 канала
Частота : 22,05 КГц
Метод сжатия : С потерями
Размер потока : 22,2 Мбайт (8%)
Default : Да
Forced : Нет
Скриншоты:



Время раздачи: С 21:00 до 24:00

Мои раздачи
[NNM-Club.ru]_Moment istinyi 19.11.2012.mkv.torrent
 Торрент: Платиновая раздача  Зарегистрирован
 
Скачать


Примагнититься
 Зарегистрирован:   20 Ноя 2012 21:53:41
 Размер:   263 MB  (
 Рейтинг:   4,3 (Голосов: 20)
 Поблагодарили:   74
 Проверка:   Оформление проверено модератором 21 Ноя 2012 05:53:19
Как cкачать  ·  Как раздать  ·  Правильно оформить  ·  Поднять ратио!  
fictionss ®
Стаж: 9 лет 9 мес.
Сообщений: 108
Ratio: 3,387
Поблагодарили: 3363
100%
ussr.gif
Кому интересна документалистика отечественной истории - эти раздачи возможно Вас заинтересуют:


Караул устал ждать (2006) TVRip
Парвус революции (2006) TVRip
Кто штурмовал "Зимний" (2003) TVRip
Иван Грозный. Портрет без ретуши. (2012) SATRip

_________________
Когда я могу сидеть - я никогда не стою!
Когда я могу лежать - я никогда не сижу!
Топик был перенесен из форума Отечественная история в форум Архив Документалистики и TV

Причина переноса: Нет сида больше месяца
ZoNoW
Показать сообщения:   
Начать новую тему   Ответить на тему    Торрент-трекер NNM-Club -> Архив торрентов -> Архив Документалистики и TV Часовой пояс: GMT + 3
Страница 1 из 1