Классический форум-трекер
canvas not supported
Нас вместе: 4 083 701
Платим за отзывы

Жить (2012) DVDRip


Страницы:  1, 2  След. 
 
RSS
Начать новую тему   Ответить на тему    Торрент-трекер NNM-Club -> Отечественное кино -> Отечественные Фильмы (HD*Rip/LQ, DVDRip, SATRip, VHSRip)
Автор Сообщение
Lelya_K ®
Стаж: 8 лет 8 мес.
Сообщений: 5537
Ratio: 7169,418
Раздал: 109,3 TB
Поблагодарили: 619500
100%
Откуда: Московская область
nnm-club.gif
Жить (2012) DVDRip
Оригинальное название: Жить
Год выпуска: 2012
Производство: Фонд кино / Кинокомпания Коктебель [Россия]
Жанр: Драма
Перевод: Не требуется [Русский язык]
Субтитры: Отсутствуют

Режиссер: Василий Сигарев
Актеры: Яна Троянова, Алексей Филимонов, Ольга Лапшина, Евгений Сытый, Анна Уколова, Марина Гаврилова, Саша Гаврилова, Дмитрий Куличков, Яна Сексте, Ирма Арендт

Описание фильма:
Человек умеет чувствовать, страдать, любить. Он умеет принять свою судьбу, даже когда та отнимает самое ценное — близких. Отнимает вместе со смыслом жизни и с желанием жить. Отнимает вместе со всем миром. Но герои фильма не готовы мириться со своими потерями. Они бросают судьбе вызов, объявляют ей войну и доходят в ней до человеческого предела. И идут дальше, по-своему побеждая…
Рецензия от Duchess_ekt...

Дата мировой премьеры: 31 января 2012
Дата российской премьеры: 30 августа 2012, «Utopia Pictures»
Дата выхода DVD релиза: 21 ноября 2012, «Кармен Видео», «Новый Диск»



Продолжительность: 01:59:01
Качество видео: DVDRip

Видео: XviD, 720x384, ~ 2073 kbps, Bit/Pixel: 0.300
Аудио: AC3 5.1, 384 kbps [Русский]
Полное имя : D:\Жить.(2012).DVDRip.avi
Формат : AVI
Формат/Информация : Audio Video Interleave
Профиль формата : OpenDML
Размер файла : 2,05 Гбайт
Продолжительность : 1 ч. 59 м.
Общий поток : 2469 Кбит/сек
Программа кодирования : VirtualDubMod 1.5.10.2 (build 2540/release)

Видео
Идентификатор : 0
Формат : MPEG-4 Visual
Профиль формата : Advanced Simple@L5
Параметр BVOP формата : Нет
Параметр QPel формата : Нет
Параметр GMC формата : Без точки перехода
Параметр матрицы формата : Выборочная
Идентификатор кодека : XVID
Идентификатор кодека/Подсказка : XviD
Продолжительность : 1 ч. 59 м.
Битрейт : 2073 Кбит/сек
Ширина : 720 пикселей
Высота : 384 пикселя
Соотношение сторон : 1,85:1
Частота кадров : 25,000 кадров/сек
Цветовое пространство : YUV
Субдискретизация насыщенности : 4:2:0
Битовая глубина : 8 бит
Тип развёртки : Прогрессивная
Метод сжатия : С потерями
Бит/(Пиксели*Кадры) : 0.300
Размер потока : 1,72 Гбайт (84%)
Библиотека кодирования : XviD 1.2.1 (UTC 2008-12-04)

Аудио
Идентификатор : 1
Формат : AC-3
Формат/Информация : Audio Coding 3
Расширение режима : CM (complete main)
Параметр Endianness формата : Big
Идентификатор кодека : 2000
Продолжительность : 1 ч. 59 м.
Вид битрейта : Постоянный
Битрейт : 384 Кбит/сек
Каналы : 6 каналов
Расположение каналов : Front: L C R, Side: L R, LFE
Частота : 48,0 КГц
Битовая глубина : 16 бит
Метод сжатия : С потерями
Задержка видео : 1 с. 800 мс.
Размер потока : 327 Мбайт (16%)
Выравнивание : Разделение по промежуткам
Продолжительность промежутка : 40 мс. (1,00 видеокадр)
Время предзагрузки промежутка : 500 мс.
Участник конкурсной программы Роттердамского Международного кинофестиваля.
Гран-при «Золотая лилия» и приз ФИПРЕССИ на фестивале goEast в Висбадене.

Кинотавр, 2012 год

Номинации (1):
  • Главный приз
Скриншоты:


Время раздачи: 24/7 (до 10 скачавших)
[NNM-Club.ru]_ZHit'.(2012).DVDRip.avi.torrent
 Торрент: Платиновая раздача  Зарегистрирован
 
Скачать


Примагнититься
 Зарегистрирован:   21 Ноя 2012 14:32:15
 Размер:   2,05 GB  (
 Рейтинг:   4,6 (Голосов: 111)
 Поблагодарили:   587
 Проверка:   Оформление проверено модератором 21 Ноя 2012 15:56:30
Как cкачать  ·  Как раздать  ·  Правильно оформить  ·  Поднять ратио!  
Loading...
oleg999g
Стаж: 11 лет 10 мес.
Сообщений: 61
Ratio: 10,58
Раздал: 61,12 TB
Поблагодарили: 194
100%
russia.gif
Такую депрессуху только у нас умеют снимать... До конца не осилил.
alonesoul
Стаж: 11 лет 2 мес.
Сообщений: 50
Ratio: 0,894
100%
oleg999g писал(а): Перейти к сообщению
Такую депрессуху только у нас умеют снимать... До конца не осилил.


искусство имитирует жизнь )))
Makcimalist
Стаж: 9 лет 9 мес.
Сообщений: 176
Ratio: 74,332
100%
russia.gif
Фильм сильный, как всегда у Сигарева. Пробирает до костей!.. Саунд очень сильно напоминает будоражащие гитарные аккорды Ника Кейва из "Мертвеца" Джармуша.
Картина по-своему уникальна - не припоминаю такого решения огромной трагедии человека. Каждый сам решает, как ему жить после... Но сила любви способна на удивительные вещи!.. даже после смерти, как оказывается. Вещи эти не всегда заканчиваются благополучно, но для одного человека жизнь всегда продолжается... даже после смерти!
Не советую смотреть в хорошем настроении, не советую смотреть на ночь, не рекомендую смотреть с детьми!
Смотрите, если вы хотите узнать действительно безграничные возможности человека. Его души!
Пограничные состояния, умение ждать, любить, надеяться и верить... в себя.
Сложная лента, но нужная.
...
Единственный момент, который так и не прочитал, история с мальчиком. Кто разобрался - отпишитесь, плиз...
Lingi
Стаж: 7 лет 10 мес.
Сообщений: 2019
Ratio: 23,465
100%
Чтобы понять тех, кто потерял близких, нужно это пережить.
Я и врагу этого не пожелаю.
Дай Бог, чтоб тех, кто не понял такое кино, было много.
RENOWATIO
Стаж: 8 лет 5 мес.
Сообщений: 2
Ratio: 0,201
0%
меня хватило на пол фильма, дальше просто человечески не смог! очень тяжелый ...
oleg999g
Стаж: 11 лет 10 мес.
Сообщений: 61
Ratio: 10,58
Раздал: 61,12 TB
Поблагодарили: 194
100%
russia.gif
Я после сцены с детскими телами выключил все это.... Надо железные нервы иметь или быть абсолютно равнодушным человеком, чтобы ЭТО смотреть.
fox7
Стаж: 8 лет 5 мес.
Сообщений: 45
Ratio: 2,137
100%
russia.gif
филм отличный о народе а не о буржуйствующему кровососущему меньшинстве почти по достоевскому я ненавижу новоиспечённых буржуев классовая вражда продолжается но сцена в церкви героиня вылитый светлаков конечно прикол

Добавлено спустя 21 минуту 2 секунды:

у буржев есть проблемы и у простого народа не меньше и наооборот

Добавлено спустя 5 минут 3 секунды:

но кто остановит океан прапости между богатыми и народом
Makubo
Стаж: 9 лет 5 мес.
Сообщений: 34
Ratio: 26,928
Раздал: 47,54 TB
100%
Откуда: СССР
ussr.gif
Прекрасный серьёзный взрослый фильм про по-настоящему живых людей.
Точно не понравится любителям "позитиффчика" и прочей "пластмассы".
Trumpet Player
Стаж: 9 лет 8 мес.
Сообщений: 33
Ratio: 9,256
100%
russia.gif
Отличная работа!
densy79
Стаж: 7 лет 9 мес.
Сообщений: 108
Ratio: 7,264
2.63%
Makcimalist писал(а): Перейти к сообщению
...
Единственный момент, который так и не прочитал, история с мальчиком. Кто разобрался - отпишитесь, плиз...


Пацан тронулся после того, как отец утопился. Вся линия с ним - его бред.
Алекс-14
Стаж: 7 лет 1 мес.
Сообщений: 112
Ratio: 1,832
25.4%
Откуда: г. Киров
russia.gif
Фильм тяжелый, рекомендую к просмотру, если готовы к получению негативных эмоций. Снято неплохо, актерская игра хорошая, но настроение после фильма весьма плохое....
lazareffdima
Стаж: 7 лет 10 мес.
Сообщений: 4
Ratio: 1,409
100%
CПАСИБО! Для тех,кто терял близких...
sat_man
Стаж: 10 лет 2 мес.
Сообщений: 2
Ratio: 34,378
21.05%
ussr.gif
[ерунда]
alamyppp
Стаж: 9 лет 6 мес.
Сообщений: 142
Ratio: 3,83
Раздал: 3,053 TB
100%
russia.gif
Фильм хороший, сильный. Но тяжёлый.
Рекомендую к просмотру всем, кроме людей с ослабленной психикой, беременных женщин и детей.
Буду пересматривать в соответствующем настроении.
Показать сообщения:   
Начать новую тему   Ответить на тему    Торрент-трекер NNM-Club -> Отечественное кино -> Отечественные Фильмы (HD*Rip/LQ, DVDRip, SATRip, VHSRip) Часовой пояс: GMT + 3
Страницы:  1, 2  След.
Страница 1 из 2