Классический форум-трекер
canvas not supported
Нас вместе: 4 081 437

Недетские мультфильмы. Сборник мультфильмов (Колобок, Луна/Марс, Фердинанд VIII, Неоновая жизнь) (2008) DVD5


 
 
RSS
Начать новую тему   Ответить на тему    Торрент-трекер NNM-Club -> Мультфильмы -> Отечественные Мультфильмы (HD, UHD, UHD-LQ, DVD, Сборники)
Автор Сообщение
almikl ®
Куратор Детского.
Модератор Видео.
RG Всё лучшее - детям!
Uploader 500+
 
Стаж: 12 лет 5 мес.
Сообщений: 4773
Ratio: 345,189
Поблагодарили: 108167
100%
Откуда: Дааалекое Подмосковье
russia.gif
Недетские мультфильмы. Сборник мультфильмов (Колобок, Луна/Марс, Фердинанд VIII, Неоновая жизнь) (2008) DVD5
Жанр: Рисованная анимация, Для взрослых

Описание:
Сборник мультфильмов для взрослых. Фонд Георгия Данелия сохранения традиций и развития нового кино.

Режиссер: В. Барбэ
Персонажи: Колобок и другие

Продолжительность: 00:52:14

Видеокодек: MPEG-2
Битрейт видео: ~5000 kbs
Размер кадра: 720х576
Качество видео: DVD5
Аудиокодек: AC3 2.0
Битрейт аудио: 192 Кбит/сек
Title: ne_detskiye_multfilmy
Size: 2.08 Gb ( 2 185 328,00 KBytes ) - DVD-5
Enabled regions: 1, 2, 3, 4, 5, 6, 7, 8

VTS_01 :
Play Length: 00:52:14
Video: PAL 4:3 (720x576) VBR
Audio:
Russian (Dolby AC3, 2 ch)

VTS_02 :
Play Length: 00:00:13
Video: PAL 4:3 (720x576) VBR
Audio:
Russian (Dolby AC3, 2 ch)
Общее
Полное имя : Z:\DVD\_Mult\ne_detskiye_multfilmy\VIDEO_TS\VTS_01_2.VOB
Формат : MPEG-PS
Размер файла : 1024 Мбайт
Продолжительность : 42 с.
Общий поток : 202 Мбит/сек

Видео
Идентификатор : 224 (0xE0)
Формат : MPEG Video
Версия формата : Version 2
Профиль формата : Main@Main
Параметр BVOP формата : Да
Параметр матрицы формата : Выборочная
Параметр GOP формата : Variable
Продолжительность : 42 с.
Битрейт : 198 Мбит/сек
Максимальный битрейт : 6000 Кбит/сек
Ширина : 720 пикселей
Высота : 576 пикселей
Соотношение сторон : 4:3
Частота кадров : 25,000 кадров/сек
Стандарт вещания : PAL
Цветовое пространство : YUV
Субдискретизация насыщенности : 4:2:0
Битовая глубина : 8 бит
Тип развёртки : Чересстрочная
Порядок развёртки : Нижнее поле первое
Метод сжатия : С потерями
Бит/(Пиксели*Кадры) : 19.113
Размер потока : 1002 Мбайт (98%)

Аудио
Идентификатор : 189 (0xBD)-128 (0x80)
Формат : AC-3
Формат/Информация : Audio Coding 3
Расширение режима : CM (complete main)
Параметр Endianness формата : Big
Режим смешивания : DVD-Video
Продолжительность : 42 с.
Вид битрейта : Постоянный
Битрейт : 192 Кбит/сек
Каналы : 2 канала
Расположение каналов : Front: L R
Частота : 48,0 КГц
Битовая глубина : 16 бит
Метод сжатия : С потерями
Задержка видео : -224 мс.
Размер потока : 995 Кбайт (0%)

Меню
Бонусы: нет
Субтитры: нет
Скриншоты:


Время раздачи: 24\7, до 10 скачавших
Релиз-группа: by almikl ® &
Все релизы Недетские мультфильмы на NNM-CLUB
[NNM-Club.me]_[NNM-Club.ru]_ne_detskiye_multfilmy.torrent
 Торрент: Платиновая раздача  Зарегистрирован
 
Скачать


Примагнититься
 Зарегистрирован:   21 Янв 2019 12:30:03
 Размер:   2,08 GB  (
 Рейтинг:   4,8 (Голосов: 95)
 Поблагодарили:   475
 Проверка:   Оформление проверено модератором 21 Янв 2019 12:31:25
Как cкачать  ·  Как раздать  ·  Правильно оформить  ·  Поднять ратио!  
laoshe2
Uploader 100+
Стаж: 8 лет 1 мес.
Сообщений: 627
Ratio: 340,083
100%
russia.gif
Классные мультики!!! Жаль только очень редкой категории Запросто подлечу :супер!: :клево: :приветствую:
starklad
RG Всё лучшее - детям!
Реставратор Детского, Uploader 100+
 
Стаж: 7 лет 11 мес.
Сообщений: 7925
Ratio: 12K
Поблагодарили: 198976
100%
Откуда: родом из СССР
ussr.gif
laoshe2
пишет -
Цитата:
Классные мультики!!! Жаль только очень редкой категории
- полностью согласен, а музыка в Колобке - вообще за душу берет!
Nick912
Стаж: 6 лет 6 мес.
Сообщений: 7
Ratio: 19,784
0%
Если это "Не детские мультфильмы", то как они попали в раздел "Детям и родителям"? Видимо, адресованы родителям, но во всяком случае не для воспитания детей.
Показать сообщения:   
Начать новую тему   Ответить на тему    Торрент-трекер NNM-Club -> Мультфильмы -> Отечественные Мультфильмы (HD, UHD, UHD-LQ, DVD, Сборники) Часовой пояс: GMT + 3
Страница 1 из 1