Классический форум-трекер
canvas not supported
Нас вместе: 4 093 644

Остаться в живых / Lost [сезон 3, 23 серии из 23] (2006) [720p] BDRip [EN]


 
 
RSS
Начать новую тему   Ответить на тему    Торрент-трекер NNM-Club -> Зарубежные сериалы -> Сериалы без перевода
Автор Сообщение
kucheryavsky ®
Стаж: 9 лет
Сообщений: 4
Ratio: 68,323
Поблагодарили: 184
100%
Остаться в живых / Lost (2006) BDRip [сезон 3, 23 серии из 23] [EN]
Русское название: Остаться в живых
Оригинальное название: Lost
Год выпуска: 2006
Жанр: Фантастика, Триллер, Приключения

Перевод: Отсутствует
Язык: Английский
Вид субтитров: Отсутствуют


Дата мировой премьеры: 04.10.2006

Режиссер: Джек Бендер, Стивен Уильямс, Пол А. Эдвардс, Таккер Гейтс, Эрик Ланёвилль, Грег Яйтанс, Кевин Хукс, Дэниэл Эттиэс, Род Холкомб, Карен Гавиола
Актеры: Мэттью Фокс, Эванджелин Лилли, Джош Холлоуэй, Терри О’Куинн, Нэвин Эндрюс, Хорхе Гарсиа, Майкл Эмерсон, Эмили де Рэйвин, Дэниэл Дэ Ким, Ким Юн Джин, Доминик Монахэн, Генри Йен Кьюсик, Хэролд Перрино, Элизабет Митчелл, Кен Люн

Описание фильма:
Красавец-лайнер, совершающий полет из Сиднея в Лос-Анджелес, неожиданно терпит крушение. 48 пассажиров, оставшихся в живых, оказываются на пустынном острове посреди океана. Люди в панике.

Надежда быть найденными довольно призрачна. Поэтому остается только одно: собраться с силами и постараться выжить на острове, начиненном множеством опасностей…

Сезон продолжает следить за более чем 40 выжившими с рейса 815 Oceanic Airlines, который рухнул на отдалённом острове на юге Тихого океана за 68 дней до начала событий, описываемых в первом эпизоде сезона. Продюсеры заявили, что если первый сезон был представлением героев, а второй — о бункере, то третий сезон о Других — загадочной группе людей, населяющих остров.

Продолжительность: 23 x ~00:43
Качество видео: BDRip

Видеокодек: MPEG-4 AVC/H.264
Битрейт видео: ~2766 кбит/с
Размер кадра: 1280x720
Аудиокодек: AC3 5.1
Битрейт аудио: 640 кбит/с
Общее
Уникальный идентификатор : 175608852369257938652082667942796865912 (0x841D08E3EAD8FCAB8DA4104466A83178)
Полное имя : D:\Video2\LOST\Lost.Season 3.720p.BluRay.x264\Lost.S03E07 'Not in Portland'.mkv
Формат : Matroska
Версия формата : Version 2
Размер файла : 1,05 Гбайт
Продолжительность : 43 м.
Режим общего битрейта : Переменный
Общий поток : 3476 Кбит/сек
Название фильма : Lost S03E07
Дата кодирования : UTC 2010-02-06 04:37:28
Программа кодирования : mkvmerge v3.0.0 ('Hang up your Hang-Ups') built on Dec 12 2009 15:20:35
Библиотека кодирования : libebml v0.7.9 + libmatroska v0.8.1

Видео
Идентификатор : 1
Формат : AVC
Формат/Информация : Advanced Video Codec
Профиль формата : High@L4.0
Параметр CABAC формата : Да
Параметр ReFrames формата : 3 кадра
Идентификатор кодека : V_MPEG4/ISO/AVC
Продолжительность : 43 м.
Вид битрейта : Переменный
Битрейт : 2766 Кбит/сек
Максимальный битрейт : 25,0 Мбит/сек
Ширина : 1280 пикселей
Высота : 720 пикселей
Соотношение сторон : 16:9
Режим частоты кадров : Постоянный
Частота кадров : 23,976 кадра/сек
Цветовое пространство : YUV
Субдискретизация насыщенности : 4:2:0
Битовая глубина : 8 бит
Тип развёртки : Прогрессивная
Бит/(Пиксели*Кадры) : 0.125
Размер потока : 857 Мбайт (80%)
Библиотека кодирования : x264 core 80 r1376kGIT 3feaec2
Настройки программы : cabac=1 / ref=3 / deblock=1:0:0 / analyse=0x3:0x133 / me=umh / subme=7 / psy=1 / psy_rd=1.0:0.0 / mixed_ref=1 / me_range=16 / chroma_me=1 / trellis=1 / 8x8dct=1 / cqm=0 / deadzone=21,11 / fast_pskip=1 / chroma_qp_offset=-2 / threads=12 / sliced_threads=0 / nr=0 / decimate=1 / mbaff=0 / constrained_intra=0 / bframes=3 / b_pyramid=0 / b_adapt=1 / b_bias=0 / direct=3 / wpredb=1 / wpredp=2 / keyint=240 / keyint_min=24 / scenecut=40 / rc_lookahead=40 / rc=crf / mbtree=1 / crf=22.0 / qcomp=0.60 / qpmin=10 / qpmax=51 / qpstep=4 / vbv_maxrate=25000 / vbv_bufsize=25000 / ip_ratio=1.40 / aq=1:1.00
Default : Да
Forced : Нет

Аудио
Идентификатор : 2
Формат : AC-3
Формат/Информация : Audio Coding 3
Расширение режима : CM (complete main)
Параметр Endianness формата : Big
Идентификатор кодека : A_AC3
Продолжительность : 43 м.
Вид битрейта : Постоянный
Битрейт : 640 Кбит/сек
Каналы : 6 каналов
Расположение каналов : Front: L C R, Side: L R, LFE
Частота : 48,0 КГц
Битовая глубина : 16 бит
Метод сжатия : С потерями
Размер потока : 198 Мбайт (18%)
Язык : English
Default : Да
Forced : Нет

Меню
00:00:00.000 : en:00:00:00.000
00:05:43.969 : en:00:05:43.969
00:13:13.292 : en:00:13:13.292
00:19:39.053 : en:00:19:39.053
00:26:07.941 : en:00:26:07.941
00:31:22.047 : en:00:31:22.047
00:42:37.513 : en:00:42:37.513
Скриншоты:


Остаться в живых / Lost [сезон 1, 25 серий из 25] (2004) [720p] BDRip [EN]
Остаться в живых / Lost [сезон 2, 24 из 24] (2005) BDRip [EN]

Время раздачи: 24/7 - круглосуточно
[NNM-Club.ru]_Lost.Season 3.720p.BluRay.x264.torrent
 Торрент: Платиновая раздача  Зарегистрирован
 
Скачать


 Зарегистрирован:   24 Ноя 2012 18:11:30
 Размер:   30 GB  (
 Рейтинг:   4,3 (Голосов: 19)
 Поблагодарили:   41
 Проверка:   Оформление проверено модератором 24 Ноя 2012 19:12:07
Как cкачать  ·  Как раздать  ·  Правильно оформить  ·  Поднять ратио!  
Anton-M
Стаж: 5 лет 8 мес.
Сообщений: 149
Ratio: 13,447
Раздал: 6,962 TB
Поблагодарили: 13400
100%
Откуда: Brighton
uk.gif
Большое спасибо. А вы рипали оставшиеся сезоны? Понимаю, что можно скачать другую раздачу и повырезать русские дороги, но редактировать 3 сезона по 25 серий... :)
Показать сообщения:   
Начать новую тему   Ответить на тему    Торрент-трекер NNM-Club -> Зарубежные сериалы -> Сериалы без перевода Часовой пояс: GMT + 3
Страница 1 из 1