Классический форум-трекер
canvas not supported
Нас вместе: 4 103 465

Джордж Карлин - George Carlin (15 выпусков) (1977-2008) DVDRip


 
 
RSS
Начать новую тему   Ответить на тему    Торрент-трекер NNM-Club -> Театр и Музыкальное видео -> Концерты
Автор Сообщение
ornellit ®
Стаж: 10 лет 4 мес.
Сообщений: 1755
Ratio: 207,742
Поблагодарили: 97616
100%
ukraine.gif
Джордж Карлин - George Carlin (1977-2008) DVDRip
Год выпуска: 1977-2008
Жанр: Stand-up comedy, Observational comedy, Wit/Word play
Продолжительность: ~14:30:00

Страна: США

Описание фильма:
Печальный год для комедии, действительно. Джордж Деннис Карлин был госпитализирован в больницу Святого Иоанна в Санта-Монике, штат Калифорния, 22 июня 2008 года. Он при поступлении жаловался на боль в грудной клетке рассказывал о сердечно-сосудистых проблемах. Он умер в тот же день в 17:55 от сердечной недостаточности в возрасте 71 года.
Наш любимый комик, удивительный атеист, дарил миру правду и, прежде всего, смех.

Перевод: Одноголосый закадровый
Язык субтитров: Русские
Вид субтитров: Вшитые



Видеокодек: Xvid
Битрейт видео: ~1245 kbps
Размер кадра: 512x384, 576x432, 640x480, 656x368, 704x528, 720x480
Качество видео: DVDRip
Аудиокодек: MP3 2.0
Битрейт аудио: 160 kbps

Внимание! В релизе присутствует не нормативная лексика.
1. On Location: George Carlin At USC / Вживую с Джорджем Карлином в УЮК - 1977
Общее
Полное имя : \Джордж Карлин\1977.avi
Формат : AVI
Формат/Информация : Audio Video Interleave
Размер файла : 815 Мбайт
Продолжительность : 1 ч. 25 м.
Общий поток : 1338 Кбит/сек
Программа кодирования : VirtualDubMod 1.5.10.2 (build 2540/release)
Библиотека кодирования : VirtualDubMod build 2540/release

Видео
Идентификатор : 0
Формат : MPEG-4 Visual
Профиль формата : Advanced Simple@L5
Параметр BVOP формата : 2
Параметр QPel формата : Нет
Параметр GMC формата : Без точки перехода
Параметр матрицы формата : Default (H.263)
Режим смешивания : Сжатый битовый поток
Идентификатор кодека : XVID
Идентификатор кодека/Подсказка : XviD
Продолжительность : 1 ч. 25 м.
Битрейт : 873 Кбит/сек
Ширина : 512 пикселей
Высота : 384 пикселя
Соотношение сторон : 4:3
Частота кадров : 29,970 кадров/сек
Цветовое пространство : YUV
Субдискретизация насыщенности : 4:2:0
Битовая глубина : 8 бит
Тип развёртки : Прогрессивная
Метод сжатия : С потерями
Бит/(Пиксели*Кадры) : 0.148
Размер потока : 532 Мбайт (65%)
Библиотека кодирования : XviD 1.2.1 (UTC 2008-12-04)

Аудио #1
Идентификатор : 1
Формат : AC-3
Формат/Информация : Audio Coding 3
Расширение режима : CM (complete main)
Параметр Endianness формата : Big
Идентификатор кодека : 2000
Продолжительность : 1 ч. 25 м.
Вид битрейта : Постоянный
Битрейт : 192 Кбит/сек
Каналы : 1 канал
Расположение каналов : Front: C
Частота : 44,1 КГц
Битовая глубина : 16 бит
Метод сжатия : С потерями
Размер потока : 117 Мбайт (14%)
Выравнивание : Соединение по промежуткам
Продолжительность промежутка : 35 мс. (1,04 видеокадр)
Время предзагрузки промежутка : 522 мс.

Аудио #2
Идентификатор : 2
Формат : MPEG Audio
Версия формата : Version 1
Профиль формата : Layer 3
Режим : Joint stereo
Идентификатор кодека : 55
Идентификатор кодека/Подсказка : MP3
Продолжительность : 1 ч. 25 м.
Вид битрейта : Постоянный
Битрейт : 256 Кбит/сек
Каналы : 2 канала
Частота : 44,1 КГц
Метод сжатия : С потерями
Размер потока : 156 Мбайт (19%)
Выравнивание : Разделение по промежуткам
Продолжительность промежутка : 33 мс. (1,00 видеокадр)
Время предзагрузки промежутка : 500 мс.
2. George Carlin Again! / Джордж Карлин: снова! - 1978
Общее
Полное имя : \Джордж Карлин\1978.avi
Формат : AVI
Формат/Информация : Audio Video Interleave
Размер файла : 1,36 Гбайт
Продолжительность : 1 ч. 21 м.
Общий поток : 2401 Кбит/сек
Программа кодирования : VirtualDubMod 1.5.10.2 (build 2540/release)
Библиотека кодирования : VirtualDubMod build 2540/release

Видео
Идентификатор : 0
Формат : MPEG-4 Visual
Профиль формата : Advanced Simple@L5
Параметр BVOP формата : 2
Параметр QPel формата : Нет
Параметр GMC формата : Без точки перехода
Параметр матрицы формата : Default (H.263)
Режим смешивания : Сжатый битовый поток
Идентификатор кодека : XVID
Идентификатор кодека/Подсказка : XviD
Продолжительность : 1 ч. 21 м.
Битрейт : 2200 Кбит/сек
Ширина : 640 пикселей
Высота : 480 пикселей
Соотношение сторон : 4:3
Частота кадров : 23,976 кадра/сек
Цветовое пространство : YUV
Субдискретизация насыщенности : 4:2:0
Битовая глубина : 8 бит
Тип развёртки : Прогрессивная
Метод сжатия : С потерями
Бит/(Пиксели*Кадры) : 0.299
Размер потока : 1,25 Гбайт (92%)
Библиотека кодирования : XviD 1.2.1 (UTC 2008-12-04)

Аудио
Идентификатор : 1
Формат : AC-3
Формат/Информация : Audio Coding 3
Расширение режима : CM (complete main)
Параметр Endianness формата : Big
Идентификатор кодека : 2000
Продолжительность : 1 ч. 21 м.
Вид битрейта : Постоянный
Битрейт : 192 Кбит/сек
Каналы : 2 канала
Расположение каналов : Front: L R
Частота : 48,0 КГц
Битовая глубина : 16 бит
Метод сжатия : С потерями
Размер потока : 112 Мбайт (8%)
Выравнивание : Разделение по промежуткам
Продолжительность промежутка : 42 мс. (1,00 видеокадр)
Время предзагрузки промежутка : 500 мс.
3. Carlin at Carnegie / Карлин в Карнеги-холле - 1982
Общее
Полное имя : \Джордж Карлин\1982.avi
Формат : AVI
Формат/Информация : Audio Video Interleave
Размер файла : 893 Мбайт
Продолжительность : 59 м.
Общий поток : 2086 Кбит/сек
Программа кодирования : VirtualDubMod 1.5.10.2 (build 2540/release)
Библиотека кодирования : VirtualDubMod build 2540/release

Видео
Идентификатор : 0
Формат : MPEG-4 Visual
Профиль формата : Advanced Simple@L5
Параметр BVOP формата : 2
Параметр QPel формата : Нет
Параметр GMC формата : Без точки перехода
Параметр матрицы формата : Default (H.263)
Режим смешивания : Сжатый битовый поток
Идентификатор кодека : XVID
Идентификатор кодека/Подсказка : XviD
Продолжительность : 59 м.
Битрейт : 1949 Кбит/сек
Ширина : 704 пикселя
Высота : 528 пикселей
Соотношение сторон : 4:3
Частота кадров : 23,976 кадра/сек
Цветовое пространство : YUV
Субдискретизация насыщенности : 4:2:0
Битовая глубина : 8 бит
Тип развёртки : Прогрессивная
Метод сжатия : С потерями
Бит/(Пиксели*Кадры) : 0.219
Размер потока : 834 Мбайт (93%)
Библиотека кодирования : XviD 1.2.1 (UTC 2008-12-04)

Аудио
Идентификатор : 1
Формат : AC-3
Формат/Информация : Audio Coding 3
Расширение режима : CM (complete main)
Параметр Endianness формата : Big
Идентификатор кодека : 2000
Продолжительность : 59 м.
Вид битрейта : Постоянный
Битрейт : 128 Кбит/сек
Каналы : 2 канала
Расположение каналов : Front: L R
Частота : 48,0 КГц
Битовая глубина : 16 бит
Метод сжатия : С потерями
Размер потока : 54,8 Мбайт (6%)
Выравнивание : Разделение по промежуткам
Продолжительность промежутка : 42 мс. (1,00 видеокадр)
Время предзагрузки промежутка : 500 мс.
4. Carlin On Campus / Карлин в Кампусе - 1984
Общее
Полное имя : \Джордж Карлин\1984.avi
Формат : AVI
Формат/Информация : Audio Video Interleave
Размер файла : 533 Мбайт
Продолжительность : 58 м.
Общий поток : 1272 Кбит/сек
TCOD : 0
TCDO : 35124089000

Видео
Идентификатор : 0
Формат : MPEG-4 Visual
Профиль формата : Advanced Simple@L5
Параметр BVOP формата : 2
Параметр QPel формата : Нет
Параметр GMC формата : Без точки перехода
Параметр матрицы формата : Default (H.263)
Режим смешивания : Сжатый битовый поток
Идентификатор кодека : XVID
Идентификатор кодека/Подсказка : XviD
Продолжительность : 58 м.
Битрейт : 1015 Кбит/сек
Ширина : 720 пикселей
Высота : 480 пикселей
Соотношение сторон : 3:2
Частота кадров : 29,970 кадров/сек
Стандарт вещания : NTSC
Цветовое пространство : YUV
Субдискретизация насыщенности : 4:2:0
Битовая глубина : 8 бит
Тип развёртки : Прогрессивная
Метод сжатия : С потерями
Бит/(Пиксели*Кадры) : 0.098
Размер потока : 425 Мбайт (80%)
Библиотека кодирования : XviD 58

Аудио
Идентификатор : 1
Формат : AC-3
Формат/Информация : Audio Coding 3
Расширение режима : CM (complete main)
Параметр Endianness формата : Big
Идентификатор кодека : 2000
Продолжительность : 58 м.
Вид битрейта : Постоянный
Битрейт : 160 Кбит/сек
Каналы : 1 канал
Расположение каналов : Front: C
Частота : 44,1 КГц
Битовая глубина : 16 бит
Метод сжатия : С потерями
Размер потока : 66,9 Мбайт (13%)
Выравнивание : Соединение по промежуткам
Продолжительность промежутка : 250 мс. (7,49 видеокадров)
Время предзагрузки промежутка : 278 мс.
5. Playin' with Your Head / Игры с твоим разумом - 1986
Общее
Полное имя : \Джордж Карлин\1986.avi
Формат : AVI
Формат/Информация : Audio Video Interleave
Размер файла : 763 Мбайт
Продолжительность : 57 м.
Общий поток : 1840 Кбит/сек
Программа кодирования : VirtualDubMod 1.5.10.2 (build 2540/release)
Библиотека кодирования : VirtualDubMod build 2540/release
TCOD : 400000
TCDO : 34760400000

Видео
Идентификатор : 0
Формат : MPEG-4 Visual
Профиль формата : Advanced Simple@L5
Параметр BVOP формата : 2
Параметр QPel формата : Нет
Параметр GMC формата : Без точки перехода
Параметр матрицы формата : Default (H.263)
Режим смешивания : Сжатый битовый поток
Идентификатор кодека : XVID
Идентификатор кодека/Подсказка : XviD
Продолжительность : 57 м.
Битрейт : 1506 Кбит/сек
Ширина : 576 пикселей
Высота : 432 пикселя
Соотношение сторон : 4:3
Частота кадров : 25,000 кадров/сек
Цветовое пространство : YUV
Субдискретизация насыщенности : 4:2:0
Битовая глубина : 8 бит
Тип развёртки : Прогрессивная
Метод сжатия : С потерями
Бит/(Пиксели*Кадры) : 0.242
Размер потока : 624 Мбайт (82%)
Библиотека кодирования : XviD 64

Аудио #1
Идентификатор : 1
Формат : MPEG Audio
Версия формата : Version 1
Профиль формата : Layer 3
Режим : Joint stereo
Идентификатор кодека : 55
Идентификатор кодека/Подсказка : MP3
Продолжительность : 57 м.
Вид битрейта : Постоянный
Битрейт : 160 Кбит/сек
Каналы : 2 канала
Частота : 48,0 КГц
Метод сжатия : С потерями
Размер потока : 66,3 Мбайт (9%)
Выравнивание : Разделение по промежуткам
Продолжительность промежутка : 40 мс. (1,00 видеокадр)
Время предзагрузки промежутка : 500 мс.

Аудио #2
Идентификатор : 2
Формат : MPEG Audio
Версия формата : Version 1
Профиль формата : Layer 3
Идентификатор кодека : 55
Идентификатор кодека/Подсказка : MP3
Продолжительность : 57 м.
Вид битрейта : Постоянный
Битрейт : 160 Кбит/сек
Каналы : 2 канала
Частота : 48,0 КГц
Метод сжатия : С потерями
Размер потока : 66,3 Мбайт (9%)
Выравнивание : Соединение по промежуткам
Продолжительность промежутка : 40 мс. (1,00 видеокадр)
Время предзагрузки промежутка : 504 мс.
6. What Am I Doing in New Jersey? / Что я делаю в Нью-Джерси? - 1988
Общее
Полное имя : \Джордж Карлин\1988.avi
Формат : AVI
Формат/Информация : Audio Video Interleave
Размер файла : 798 Мбайт
Продолжительность : 58 м.
Общий поток : 1906 Кбит/сек
TCOD : 0
TCDO : 35107586206

Видео
Идентификатор : 0
Формат : MPEG-4 Visual
Профиль формата : Advanced Simple@L5
Параметр BVOP формата : 2
Параметр QPel формата : Нет
Параметр GMC формата : Без точки перехода
Параметр матрицы формата : Default (H.263)
Режим смешивания : Сжатый битовый поток
Идентификатор кодека : XVID
Идентификатор кодека/Подсказка : XviD
Продолжительность : 58 м.
Битрейт : 1696 Кбит/сек
Ширина : 512 пикселей
Высота : 384 пикселя
Соотношение сторон : 4:3
Частота кадров : 29,000 кадров/сек
Цветовое пространство : YUV
Субдискретизация насыщенности : 4:2:0
Битовая глубина : 8 бит
Тип развёртки : Прогрессивная
Метод сжатия : С потерями
Бит/(Пиксели*Кадры) : 0.298
Размер потока : 710 Мбайт (89%)
Библиотека кодирования : XviD 64

Аудио
Идентификатор : 1
Формат : MPEG Audio
Версия формата : Version 1
Профиль формата : Layer 3
Режим : Joint stereo
Расширение режима : MS Stereo
Идентификатор кодека : 55
Идентификатор кодека/Подсказка : MP3
Продолжительность : 58 м.
Вид битрейта : Постоянный
Битрейт : 112 Кбит/сек
Каналы : 2 канала
Частота : 48,0 КГц
Метод сжатия : С потерями
Размер потока : 46,9 Мбайт (6%)
Выравнивание : Соединение по промежуткам
Продолжительность промежутка : 250 мс. (7,25 видеокадров)
Время предзагрузки промежутка : 192 мс.
7. Doin' It Again / Снова за старое - 1990
Общее
Полное имя : \Джордж Карлин\1990.avi
Формат : AVI
Формат/Информация : Audio Video Interleave
Размер файла : 748 Мбайт
Продолжительность : 59 м.
Режим общего битрейта : Переменный
Общий поток : 1760 Кбит/сек
Программа кодирования : VirtualDubMod 1.5.10.2 (build 2540/release)
Библиотека кодирования : VirtualDubMod build 2540/release

Видео
Идентификатор : 0
Формат : MPEG-4 Visual
Профиль формата : Simple@L3
Параметр BVOP формата : Нет
Параметр QPel формата : Нет
Параметр GMC формата : Без точки перехода
Параметр матрицы формата : Default (H.263)
Идентификатор кодека : XVID
Идентификатор кодека/Подсказка : XviD
Продолжительность : 59 м.
Битрейт : 1363 Кбит/сек
Ширина : 512 пикселей
Высота : 384 пикселя
Соотношение сторон : 4:3
Частота кадров : 29,970 кадров/сек
Цветовое пространство : YUV
Субдискретизация насыщенности : 4:2:0
Битовая глубина : 8 бит
Тип развёртки : Прогрессивная
Метод сжатия : С потерями
Бит/(Пиксели*Кадры) : 0.231
Размер потока : 580 Мбайт (77%)
Библиотека кодирования : XviD 0.0.09 (UTC 2003-03-25)

Аудио #1
Идентификатор : 1
Формат : MPEG Audio
Версия формата : Version 1
Профиль формата : Layer 3
Идентификатор кодека : 55
Идентификатор кодека/Подсказка : MP3
Продолжительность : 59 м.
Вид битрейта : Постоянный
Битрейт : 256 Кбит/сек
Каналы : 2 канала
Частота : 44,1 КГц
Метод сжатия : С потерями
Размер потока : 109 Мбайт (15%)
Выравнивание : Разделение по промежуткам
Продолжительность промежутка : 33 мс. (1,00 видеокадр)
Время предзагрузки промежутка : 500 мс.

Аудио #2
Идентификатор : 2
Формат : MPEG Audio
Версия формата : Version 1
Профиль формата : Layer 3
Режим : Joint stereo
Идентификатор кодека : 55
Идентификатор кодека/Подсказка : MP3
Продолжительность : 59 м.
Вид битрейта : Переменный
Битрейт : 121 Кбит/сек
Номинальный битрейт : 128 Кбит/сек
Каналы : 2 канала
Частота : 48,0 КГц
Метод сжатия : С потерями
Размер потока : 51,6 Мбайт (7%)
Выравнивание : Соединение по промежуткам
Продолжительность промежутка : 24 мс. (0,72 видеокадр)
Время предзагрузки промежутка : 525 мс.
Библиотека кодирования : LAME3.93a
Настройки программы : -m j -V 4 -q 2 -lowpass 17.5 --abr 128
8. Jammin In New York / Зависая в Нью-Йорке - 1992
Общее
Полное имя : \Джордж Карлин\1992.avi
Формат : AVI
Формат/Информация : Audio Video Interleave
Размер файла : 695 Мбайт
Продолжительность : 58 м.
Общий поток : 1647 Кбит/сек

Видео
Идентификатор : 0
Формат : MPEG-4 Visual
Профиль формата : Advanced Simple@L5
Параметр BVOP формата : 2
Параметр QPel формата : Нет
Параметр GMC формата : Без точки перехода
Параметр матрицы формата : Default (H.263)
Режим смешивания : Сжатый битовый поток
Идентификатор кодека : XVID
Идентификатор кодека/Подсказка : XviD
Продолжительность : 58 м.
Битрейт : 1422 Кбит/сек
Ширина : 720 пикселей
Высота : 480 пикселей
Соотношение сторон : 3:2
Частота кадров : 29,970 кадров/сек
Стандарт вещания : NTSC
Цветовое пространство : YUV
Субдискретизация насыщенности : 4:2:0
Битовая глубина : 8 бит
Тип развёртки : Прогрессивная
Метод сжатия : С потерями
Бит/(Пиксели*Кадры) : 0.137
Размер потока : 600 Мбайт (86%)
Библиотека кодирования : XviD 1.2.1 (UTC 2008-12-04)

Аудио
Идентификатор : 1
Формат : AC-3
Формат/Информация : Audio Coding 3
Расширение режима : CM (complete main)
Параметр Endianness формата : Big
Идентификатор кодека : 2000
Продолжительность : 58 м.
Вид битрейта : Постоянный
Битрейт : 128 Кбит/сек
Каналы : 1 канал
Расположение каналов : Front: C
Частота : 44,1 КГц
Битовая глубина : 16 бит
Метод сжатия : С потерями
Размер потока : 53,8 Мбайт (8%)
Выравнивание : Соединение по промежуткам
Продолжительность промежутка : 250 мс. (7,49 видеокадров)
Время предзагрузки промежутка : 278 мс.
9. Back in Town / Снова в городе - 1996
Общее
Полное имя : \Джордж Карлин\1996.avi
Формат : AVI
Формат/Информация : Audio Video Interleave
Размер файла : 702 Мбайт
Продолжительность : 1 ч. 2 м.
Общий поток : 1563 Кбит/сек

Видео
Идентификатор : 0
Формат : MPEG-4 Visual
Профиль формата : Advanced Simple@L5
Параметр BVOP формата : 2
Параметр QPel формата : Нет
Параметр GMC формата : Без точки перехода
Параметр матрицы формата : Default (H.263)
Режим смешивания : Сжатый битовый поток
Идентификатор кодека : XVID
Идентификатор кодека/Подсказка : XviD
Продолжительность : 1 ч. 2 м.
Битрейт : 1339 Кбит/сек
Ширина : 512 пикселей
Высота : 384 пикселя
Соотношение сторон : 4:3
Частота кадров : 29,970 кадров/сек
Цветовое пространство : YUV
Субдискретизация насыщенности : 4:2:0
Битовая глубина : 8 бит
Тип развёртки : Прогрессивная
Метод сжатия : С потерями
Бит/(Пиксели*Кадры) : 0.227
Размер потока : 601 Мбайт (86%)
Библиотека кодирования : XviD 1.2.1 (UTC 2008-12-04)

Аудио
Идентификатор : 1
Формат : AC-3
Формат/Информация : Audio Coding 3
Расширение режима : CM (complete main)
Параметр Endianness формата : Big
Идентификатор кодека : 2000
Продолжительность : 1 ч. 2 м.
Вид битрейта : Постоянный
Битрейт : 128 Кбит/сек
Каналы : 1 канал
Расположение каналов : Front: C
Частота : 44,1 КГц
Битовая глубина : 16 бит
Метод сжатия : С потерями
Размер потока : 57,4 Мбайт (8%)
Выравнивание : Соединение по промежуткам
Продолжительность промежутка : 250 мс. (7,49 видеокадров)
Время предзагрузки промежутка : 278 мс.
10. 40 Years of Comedy / 40 лет на сцене - 1997
Общее
Полное имя : \Джордж Карлин\1997.avi
Формат : AVI
Формат/Информация : Audio Video Interleave
Размер файла : 645 Мбайт
Продолжительность : 59 м.
Общий поток : 1527 Кбит/сек
TCOD : 667333
TCDO : 35437068333

Видео
Идентификатор : 0
Формат : MPEG-4 Visual
Профиль формата : Advanced Simple@L5
Параметр BVOP формата : 2
Параметр QPel формата : Нет
Параметр GMC формата : Без точки перехода
Параметр матрицы формата : Default (H.263)
Режим смешивания : Сжатый битовый поток
Идентификатор кодека : XVID
Идентификатор кодека/Подсказка : XviD
Продолжительность : 59 м.
Битрейт : 1298 Кбит/сек
Ширина : 512 пикселей
Высота : 384 пикселя
Соотношение сторон : 4:3
Частота кадров : 29,970 кадров/сек
Цветовое пространство : YUV
Субдискретизация насыщенности : 4:2:0
Битовая глубина : 8 бит
Тип развёртки : Прогрессивная
Метод сжатия : С потерями
Бит/(Пиксели*Кадры) : 0.220
Размер потока : 548 Мбайт (85%)
Библиотека кодирования : XviD 64

Аудио
Идентификатор : 1
Формат : MPEG Audio
Версия формата : Version 1
Профиль формата : Layer 3
Режим : Joint stereo
Расширение режима : MS Stereo
Идентификатор кодека : 55
Идентификатор кодека/Подсказка : MP3
Продолжительность : 59 м.
Вид битрейта : Постоянный
Битрейт : 128 Кбит/сек
Каналы : 2 канала
Частота : 48,0 КГц
Метод сжатия : С потерями
Размер потока : 54,1 Мбайт (8%)
Выравнивание : Соединение по промежуткам
Продолжительность промежутка : 250 мс. (7,49 видеокадров)
Время предзагрузки промежутка : 216 мс.
11. You are all diseased / Вам всем крышка - 1999
Общее
Полное имя : \Джордж Карлин\1999.avi
Формат : AVI
Формат/Информация : Audio Video Interleave
Размер файла : 461 Мбайт
Продолжительность : 1 ч. 3 м.
Общий поток : 1008 Кбит/сек

Видео
Идентификатор : 0
Формат : MPEG-4 Visual
Профиль формата : Advanced Simple@L5
Параметр BVOP формата : 2
Параметр QPel формата : Нет
Параметр GMC формата : Без точки перехода
Параметр матрицы формата : Default (H.263)
Режим смешивания : Сжатый битовый поток
Идентификатор кодека : XVID
Идентификатор кодека/Подсказка : XviD
Продолжительность : 1 ч. 3 м.
Битрейт : 784 Кбит/сек
Ширина : 560 пикселей
Высота : 416 пикселей
Соотношение сторон : 4:3
Частота кадров : 29,970 кадров/сек
Цветовое пространство : YUV
Субдискретизация насыщенности : 4:2:0
Битовая глубина : 8 бит
Тип развёртки : Прогрессивная
Метод сжатия : С потерями
Бит/(Пиксели*Кадры) : 0.112
Размер потока : 358 Мбайт (78%)
Библиотека кодирования : XviD 1.2.1 (UTC 2008-12-04)

Аудио
Идентификатор : 1
Формат : AC-3
Формат/Информация : Audio Coding 3
Расширение режима : CM (complete main)
Параметр Endianness формата : Big
Идентификатор кодека : 2000
Продолжительность : 1 ч. 3 м.
Вид битрейта : Постоянный
Битрейт : 128 Кбит/сек
Каналы : 1 канал
Расположение каналов : Front: C
Частота : 44,1 КГц
Битовая глубина : 16 бит
Метод сжатия : С потерями
Размер потока : 58,3 Мбайт (13%)
Выравнивание : Соединение по промежуткам
Продолжительность промежутка : 250 мс. (7,49 видеокадров)
Время предзагрузки промежутка : 278 мс.
12. Complaints And Grievances / Жалобы и обиды - 2001
Общее
Полное имя : \Джордж Карлин\2001.avi
Формат : AVI
Формат/Информация : Audio Video Interleave
Размер файла : 580 Мбайт
Продолжительность : 56 м.
Общий поток : 1441 Кбит/сек

Видео
Идентификатор : 0
Формат : MPEG-4 Visual
Профиль формата : Advanced Simple@L5
Параметр BVOP формата : 2
Параметр QPel формата : Нет
Параметр GMC формата : Без точки перехода
Параметр матрицы формата : Default (H.263)
Режим смешивания : Сжатый битовый поток
Идентификатор кодека : XVID
Идентификатор кодека/Подсказка : XviD
Продолжительность : 56 м.
Битрейт : 1217 Кбит/сек
Ширина : 592 пикселя
Высота : 432 пикселя
Соотношение сторон : 1,370
Частота кадров : 29,970 кадров/сек
Цветовое пространство : YUV
Субдискретизация насыщенности : 4:2:0
Битовая глубина : 8 бит
Тип развёртки : Прогрессивная
Метод сжатия : С потерями
Бит/(Пиксели*Кадры) : 0.159
Размер потока : 489 Мбайт (84%)
Библиотека кодирования : XviD 1.2.1 (UTC 2008-12-04)

Аудио
Идентификатор : 1
Формат : AC-3
Формат/Информация : Audio Coding 3
Расширение режима : CM (complete main)
Параметр Endianness формата : Big
Идентификатор кодека : 2000
Продолжительность : 56 м.
Вид битрейта : Постоянный
Битрейт : 128 Кбит/сек
Каналы : 1 канал
Расположение каналов : Front: C
Частота : 44,1 КГц
Битовая глубина : 16 бит
Метод сжатия : С потерями
Размер потока : 51,4 Мбайт (9%)
Выравнивание : Соединение по промежуткам
Продолжительность промежутка : 250 мс. (7,49 видеокадров)
Время предзагрузки промежутка : 278 мс.
13. Inside the actors studio Geogre Carlin / Джордж Карлин в актёрской студии - 2004
Общее
Полное имя : \Джордж Карлин\2004.avi
Формат : AVI
Формат/Информация : Audio Video Interleave
Размер файла : 624 Мбайт
Продолжительность : 46 м.
Общий поток : 1858 Кбит/сек
Программа кодирования : VirtualDubMod 1.5.10.2 (build 2540/release)
Библиотека кодирования : VirtualDubMod build 2540/release
TCOD : 0
TCDO : 28173812333

Видео
Идентификатор : 0
Формат : MPEG-4 Visual
Профиль формата : Advanced Simple@L5
Параметр BVOP формата : 2
Параметр QPel формата : Нет
Параметр GMC формата : Без точки перехода
Параметр матрицы формата : Default (H.263)
Режим смешивания : Сжатый битовый поток
Идентификатор кодека : XVID
Идентификатор кодека/Подсказка : XviD
Продолжительность : 46 м.
Битрейт : 1521 Кбит/сек
Ширина : 480 пикселей
Высота : 360 пикселей
Соотношение сторон : 4:3
Частота кадров : 29,970 кадров/сек
Цветовое пространство : YUV
Субдискретизация насыщенности : 4:2:0
Битовая глубина : 8 бит
Тип развёртки : Прогрессивная
Метод сжатия : С потерями
Бит/(Пиксели*Кадры) : 0.294
Размер потока : 511 Мбайт (82%)
Библиотека кодирования : XviD 64

Аудио #1
Идентификатор : 1
Формат : MPEG Audio
Версия формата : Version 1
Профиль формата : Layer 3
Режим : Joint stereo
Расширение режима : MS Stereo
Идентификатор кодека : 55
Идентификатор кодека/Подсказка : MP3
Продолжительность : 46 м.
Вид битрейта : Постоянный
Битрейт : 128 Кбит/сек
Каналы : 2 канала
Частота : 48,0 КГц
Метод сжатия : С потерями
Размер потока : 43,0 Мбайт (7%)
Выравнивание : Разделение по промежуткам
Продолжительность промежутка : 33 мс. (1,00 видеокадр)
Время предзагрузки промежутка : 500 мс.

Аудио #2
Идентификатор : 2
Формат : MPEG Audio
Версия формата : Version 1
Профиль формата : Layer 3
Режим : Joint stereo
Расширение режима : MS Stereo
Идентификатор кодека : 55
Идентификатор кодека/Подсказка : MP3
Продолжительность : 46 м.
Вид битрейта : Постоянный
Битрейт : 192 Кбит/сек
Каналы : 2 канала
Частота : 44,1 КГц
Метод сжатия : С потерями
Размер потока : 64,5 Мбайт (10%)
Выравнивание : Разделение по промежуткам
Продолжительность промежутка : 33 мс. (1,00 видеокадр)
Время предзагрузки промежутка : 500 мс.
Библиотека кодирования : LAME3.98
Настройки программы : -m j -V 4 -q 3 -lowpass 18.6 -b 192
14. Life Is Worth Losing / Жизнь стоит того, чтобы её потерять - 2005
Общее
Полное имя : \Джордж Карлин\2005.avi
Формат : AVI
Формат/Информация : Audio Video Interleave
Размер файла : 778 Мбайт
Продолжительность : 1 ч. 13 м.
Общий поток : 1478 Кбит/сек

Видео
Идентификатор : 0
Формат : MPEG-4 Visual
Профиль формата : Advanced Simple@L5
Параметр BVOP формата : 2
Параметр QPel формата : Нет
Параметр GMC формата : Без точки перехода
Параметр матрицы формата : Default (H.263)
Режим смешивания : Сжатый битовый поток
Идентификатор кодека : XVID
Идентификатор кодека/Подсказка : XviD
Продолжительность : 1 ч. 13 м.
Битрейт : 1221 Кбит/сек
Ширина : 560 пикселей
Высота : 320 пикселей
Соотношение сторон : 16:9
Частота кадров : 29,970 кадров/сек
Цветовое пространство : YUV
Субдискретизация насыщенности : 4:2:0
Битовая глубина : 8 бит
Тип развёртки : Прогрессивная
Метод сжатия : С потерями
Бит/(Пиксели*Кадры) : 0.227
Размер потока : 643 Мбайт (83%)
Библиотека кодирования : XviD 1.2.1 (UTC 2008-12-04)

Аудио
Идентификатор : 1
Формат : AC-3
Формат/Информация : Audio Coding 3
Расширение режима : CM (complete main)
Параметр Endianness формата : Big
Идентификатор кодека : 2000
Продолжительность : 1 ч. 13 м.
Вид битрейта : Постоянный
Битрейт : 160 Кбит/сек
Каналы : 1 канал
Расположение каналов : Front: C
Частота : 44,1 КГц
Битовая глубина : 16 бит
Метод сжатия : С потерями
Размер потока : 84,1 Мбайт (11%)
Выравнивание : Соединение по промежуткам
Продолжительность промежутка : 250 мс. (7,49 видеокадров)
Время предзагрузки промежутка : 278 мс.
15. It's bad for ya / Это плохо для тебя - 2008
Общее
Полное имя : \Джордж Карлин\2008.avi
Формат : AVI
Формат/Информация : Audio Video Interleave
Размер файла : 888 Мбайт
Продолжительность : 1 ч. 8 м.
Общий поток : 1799 Кбит/сек

Видео
Идентификатор : 0
Формат : MPEG-4 Visual
Профиль формата : Advanced Simple@L5
Параметр BVOP формата : 2
Параметр QPel формата : Нет
Параметр GMC формата : Без точки перехода
Параметр матрицы формата : Default (H.263)
Режим смешивания : Сжатый битовый поток
Идентификатор кодека : XVID
Идентификатор кодека/Подсказка : XviD
Продолжительность : 1 ч. 8 м.
Битрейт : 1542 Кбит/сек
Ширина : 656 пикселей
Высота : 368 пикселей
Соотношение сторон : 16:9
Частота кадров : 29,970 кадров/сек
Цветовое пространство : YUV
Субдискретизация насыщенности : 4:2:0
Битовая глубина : 8 бит
Тип развёртки : Прогрессивная
Метод сжатия : С потерями
Бит/(Пиксели*Кадры) : 0.213
Размер потока : 761 Мбайт (86%)
Библиотека кодирования : XviD 1.2.1 (UTC 2008-12-04)

Аудио
Идентификатор : 1
Формат : AC-3
Формат/Информация : Audio Coding 3
Расширение режима : CM (complete main)
Параметр Endianness формата : Big
Идентификатор кодека : 2000
Продолжительность : 1 ч. 8 м.
Вид битрейта : Постоянный
Битрейт : 160 Кбит/сек
Каналы : 1 канал
Расположение каналов : Front: C
Частота : 44,1 КГц
Битовая глубина : 16 бит
Метод сжатия : С потерями
Размер потока : 78,9 Мбайт (9%)
Выравнивание : Соединение по промежуткам
Продолжительность промежутка : 250 мс. (7,49 видеокадров)
Время предзагрузки промежутка : 278 мс.

Скриншоты:


Приятного просмотра!

Реставрация sklad600
[NNM-Club.ru]_Dzhordzh Karlin.torrent
 Торрент: Платиновая раздача  Зарегистрирован
 
Скачать


Примагнититься
 Зарегистрирован:   25 Ноя 2012 05:10:17
 Размер:   11,1 GB  (
 Рейтинг:   5 (Голосов: 238)
 Поблагодарили:   623
 Проверка:   Оформление проверено модератором 26 Ноя 2012 22:18:05
Как cкачать  ·  Как раздать  ·  Правильно оформить  ·  Поднять ратио!  
лукаром
Стаж: 8 лет 2 мес.
Сообщений: 15
Ratio: 8,237
41.11%
люди, встаньте кто нить на раздачу пожалуйста!
ornellit ®
Стаж: 10 лет 4 мес.
Сообщений: 1755
Ratio: 207,742
Поблагодарили: 97616
100%
ukraine.gif
лукаром
на раздаче...
oursk
Стаж: 7 лет 6 мес.
Сообщений: 341
Ratio: 62,026
100%
Оригинальный звук во всех роликах есть?
ornellit ®
Стаж: 10 лет 4 мес.
Сообщений: 1755
Ratio: 207,742
Поблагодарили: 97616
100%
ukraine.gif
oursk
не во всех, см. MediaInfo конкретного выпуска.
huzzza
Стаж: 9 лет
Сообщений: 541
Ratio: 15,271
100%
последние выступления очень очень жизненные.
земля ему пухом.
mikhaill1995
Стаж: 7 лет 9 мес.
Сообщений: 21
Ratio: 5,71
100%
pirates.png
А почему нет субтитров? Включаю в настройках плеера, но сабы не появляются. Или я что то не так делаю?

Все, понял, субтитры есть не везде. а есть на трекере эта же коллекция, но только вся с оригинальной звуковой дорожкой и субтитрами. Все таки в дубляже звучит не очень.
titanlpd
Стаж: 8 лет 9 мес.
Сообщений: 25
Ratio: 3,257
100%
russia.gif
Автору раздачи виваты и респекты, скачаю и останусь на форева раздаче !
ALEKCEN
Стаж: 11 лет 6 мес.
Сообщений: 69
Ratio: 142,856
Раздал: 238 GB
100%
Откуда: Екатеринбург
russia.gif
Хочу скачать - выкидывает на главную страницу,чё за байда ?

_________________
....
abruzter
Стаж: 6 лет 2 мес.
Сообщений: 8
Ratio: 50,097
100%
Нигде не найти коллекции с оригинальным звуком и русскими сабами, что ж за напасть(
yalmar
 
Стаж: 10 лет 7 мес.
Сообщений: 67
Ratio: 9,201
Поблагодарили: 4
100%
russia.gif
Он не умер. Он "покинул нас" (с)
ok2fix
Стаж: 4 года 10 мес.
Сообщений: 1
Ratio: 2,477
0%
реалист по сути ... так подать жизненно важные аспекты с юмором .. чтоб сбить программируемую среду ... это ТАЛАНТИЩЕ .....
tor2017
Стаж: 3 года 11 мес.
Сообщений: 45
18.18%
Автору спасибо, столько трудов собрать все выступления Карлина.
С ютуба пару лет назад удалили большую часть его полных стэндапов с переводом. Сейчас остались только нарезки.
Ещё где то в вк кажется есть группа с его переводами, этот материал оттуда?
Спасибо.
semasem
Стаж: 2 года 4 мес.
Сообщений: 14
Ratio: 0,465
100%
Ребята, станьте на раздачу пожалуйста :)
scrapped
Стаж: 9 лет 2 мес.
Сообщений: 453
Ratio: 14,647
100%
ussr.gif
В "Догме" - он хорош)!
Показать сообщения:   
Начать новую тему   Ответить на тему    Торрент-трекер NNM-Club -> Театр и Музыкальное видео -> Концерты Часовой пояс: GMT + 3
Страница 1 из 1