Классический форум-трекер
canvas not supported
Нас вместе: 4 095 216

После войны-мир / Человек с другой стороны (1988, 1971) DVD9


 
 
RSS
Начать новую тему   Ответить на тему    Торрент-трекер NNM-Club -> Классика кино и Старые фильмы до 90-х -> Старые Отечественные Фильмы (DVD)
Автор Сообщение
almikl ®
Куратор Детского.
Модератор Видео.
RG Всё лучшее - детям!
Uploader 500+
 
Стаж: 12 лет 8 мес.
Сообщений: 4823
Ratio: 360,011
Поблагодарили: 111147
100%
Откуда: Дааалекое Подмосковье
russia.gif
После войны-мир / Человек с другой стороны (1988, 1971) DVD9
Жанр: Драма

Режиссер: Анатолий Никитин
Актеры: Саша Куличков, Олег Моторин, Татьяна Одемлюк, Юрий Назаров, Виталий Базин, Людмила Давыдова, Алексей Серебряков, Геннадий Воронин, Александр Карин, Николай Сектименко, Наталья Смолянинова, Наталья Комардина, Светлана Тормахова.

Описание:
В первые послевоенные годы в небольшом шахтерском поселке под Тулой живут в основном женщины и подростки. Матери наравне с мужчинами работают в шахте. Дети живут своей жизнью и зависимы от семнадцатилетнего уголовника по прозвищу Зверь. Он всем недоволен, его все боятся и стараются с ним не связываться. Его арестуют только тогда, когда от его руки погибнет милиционер...

Продолжительность: 01:11:41


Скриншоты:

Жанр: Военный, Приключения
Режиссер: Юрий Егоров
Актеры: Биби Андерсон, Вячеслав Тихонов, Патрик Ваймарк, Игорь Ясулович, Валентин Гафт, Софья Павлова, Пер-Аксель Аросениус, Ирина Гошева, Гунель Брестрем, Ефим Фридман, Вилли Петерс.
Производство: Швеция, СССР
Описание: В первые послереволюционные годы правительство СССР заказывает Швеции тысячу паровозов. Экономический кризис, разразившийся по всей Европе, подталкивает шведов принять заказ. Белоэмигранты, узнав о соглашении двух стран, готовят новые заговоры и диверсии. Проследить выполнение задания правительства поручается советскому инженеру Крымову...

Продолжительность: 01:32:17


Видеокодек: MPEG-2
Битрейт видео: ~6629 Кбит/сек
Размер кадра: 720 х 576
Качество видео: DVD9
Аудиокодек: AC3 2.0
Битрейт аудио: 192 Кбит/сек

Скриншоты:
Общее
Полное имя : E:\DVD\Posle_voyni-mir__Chelovek_s_drugoy_storoni\VIDEO_TS\VTS_01_2.VOB
Формат : MPEG-PS
Размер файла : 1000 Мбайт
Продолжительность : 20 м.
Общий поток : 6960 Кбит/сек

Видео
Идентификатор : 224 (0xE0)
Формат : MPEG Video
Версия формата : Version 2
Профиль формата : Main@Main
Параметр BVOP формата : Да
Параметр матрицы формата : По умолчанию
Параметры GOP формата : M=3, N=12
Продолжительность : 20 м.
Вид битрейта : Переменный
Битрейт : 6629 Кбит/сек
Номинальный битрейт : 9282 Кбит/сек
Ширина : 720 пикс.
Высота : 576 пикс.
Соотношение сторон : 4:3
Частота кадров : 25,000 кадр/сек
Стандарт вещания : PAL
Цветовое пространство : YUV
Подвыборка цветности : 4:2:0
Битовая глубина : 8 бит
Тип развёртки : Чересстрочная
Порядок развёртки : Верхнее поле первое
Метод сжатия : С потерями
Бит/(Пиксели*Кадры) : 0.639
Размер потока : 953 Мбайт (95%)

Аудио
Идентификатор : 189 (0xBD)-128 (0x80)
Формат : AC-3
Формат/Информация : Audio Coding 3
Расширение режима : CM (complete main)
Режим смешивания : DVD-Video
Продолжительность : 20 м.
Вид битрейта : Постоянный
Битрейт : 192 Кбит/сек
Канал(ы) : 2 канала(ов)
Расположение каналов : Front: L R
Частота : 48,0 КГц
Битовая глубина : 16 бит
Метод сжатия : С потерями
Задержка видео : -176 мс.
Размер потока : 27,6 Мбайт (3%)

Меню
Title:
Size: 7.02 Gb ( 7 362 360 KBytes ) - DVD-9
Enabled regions: 1, 2, 3, 4, 5, 6, 7, 8

VTS_01 :
Play Length: 00:00:07+01:11:41+01:32:17
Video: PAL 4:3 (704x576) VBR
Audio:
English (Dolby AC3, 2 ch)
Бонусы: нет
Субтитры: нет
Время раздачи: 24/7, до 10 скачавших
Релиз-группа: by almikl ®
Все релизы После войны-мир на NNM-CLUB
Все релизы Человек с другой стороны на NNM-CLUB

В качестве DVD данные фильмы удалось найти в Сети только в таком виде (2 in 1).
[NNM-Club.me]_[NNM-Club.ru]_Posle_voyni-mir__Chelovek_s_drugoy_storoni.torrent
 Торрент: Платиновая раздача  Зарегистрирован
 
Скачать


Примагнититься
 Зарегистрирован:   14 Янв 2019 12:11:03
 Размер:   7,02 GB  (
 Рейтинг:   4,5 (Голосов: 24)
 Поблагодарили:   93
 Проверка:   Оформление проверено модератором 14 Янв 2019 12:14:31
Как cкачать  ·  Как раздать  ·  Правильно оформить  ·  Поднять ратио!  
Показать сообщения:   
Начать новую тему   Ответить на тему    Торрент-трекер NNM-Club -> Классика кино и Старые фильмы до 90-х -> Старые Отечественные Фильмы (DVD) Часовой пояс: GMT + 3
Страница 1 из 1