Классический форум-трекер
canvas not supported
Нас вместе: 4 077 709

Шаг вперед 4 / Step Up Revolution (2012) [1080p] BDRip


 
 
RSS
Начать новую тему   Ответить на тему    Торрент-трекер NNM-Club -> Зарубежное кино -> Зарубежные Фильмы (HD, UHD-LQ)
Автор Сообщение
Loko73loko ®
Стаж: 8 лет 9 мес.
Сообщений: 334
Ratio: 24,151
Поблагодарили: 10739
100%
Откуда: Мистик фолс
russia.gif
Шаг вперед 4 / Step Up Revolution (2012) [1080p] BDRip
Русское название: Шаг вперед 4
Оригинальное название: Step Up Revolution
Год выпуска: 2012
Жанр: Драма, Мелодрама, Музыка

Дата мировой премьеры: 26 июля 2012
Дата российской премьеры: 26 июля 2012
Дата выхода DVD релиза: 27 ноября 2012
Дата выхода Blu-Ray релиза: 27 ноября 2012

Описание фильма:
Эмили, дочь влиятельного бизнесмена, приезжает в Майами с намерением стать профессиональной танцовщицей, но влюбляется в Шона — юношу, чья танцевальная труппа устраивает музыкальные флэшмобы. Команда, называющаяся MOB, участвует в конкурсе с внушительным денежным призом, а тем временем отец Эмили намеревается перестроить родной район ребят и переселить тысячи людей. Эмили присоединяется к танцорам и организует протестные мобы, рискуя не осуществить мечту, но сражаясь за нечто более важное.

Режиссер: Скотт Спир
Продюсер: Эрик Фейг, Дженнифер Джибгот, Гаррет Грант
Актеры: Райан Гузман, Кэтрин МакКормик, Миша Гэбриел Хэмилтон, Клеопатра Коулмэн, Стивен Стэннерт, Томми Дьюи, Питер Галлахер, Клаудио Пинто, Крис Чарльз, Кэти Петерсон, Марк Маколей, Марио Эрнесто Санчез, Сабина В. Гомез, Доминик Белл, Меган Бун, Миа Майклс, Джордана ДеПаула

Продолжительность: 01:38:38
Перевод: Дублированный



Видеокодек: MPEG-4 AVC/H.264
Битрейт видео: ~9597 Кбит/с
Размер кадра: 1920x800
Качество видео: BDRip
Аудио1 AC3, 6 ch, 448 Кбит/ Русский
Аудио2 (DTS, 6 ch, 1510 Кбит/c) Английский
Общее
Уникальный идентификатор : 196212955890759192315261632577390714539 (0x939D3DA0004E637C979CC292FC171EAB)
Полное имя : E:\Фильмы\Shag.vpered.4.2012.BDRip.1080p.mkv
Формат : Matroska
Версия формата : Version 2
Размер файла : 7,96 Гбайт
Продолжительность : 1 ч. 38 м.
Общий поток : 11,6 Мбит/сек
Дата кодирования : UTC 2012-11-28 22:10:00
Программа кодирования : mkvmerge v5.5.0 ('Healer') built on Apr 6 2012 21:43:24
Библиотека кодирования : libebml v1.2.3 + libmatroska v1.3.0

Видео
Идентификатор : 1
Формат : AVC
Формат/Информация : Advanced Video Codec
Профиль формата : High@L4.1
Параметр CABAC формата : Да
Параметр ReFrames формата : 5 кадров
Идентификатор кодека : V_MPEG4/ISO/AVC
Продолжительность : 1 ч. 38 м.
Битрейт : 9597 Кбит/сек
Ширина : 1920 пикселей
Высота : 800 пикселей
Соотношение сторон : 2,40:1
Частота кадров : 23,976 кадра/сек
Цветовое пространство : YUV
Субдискретизация насыщенности : 4:2:0
Битовая глубина : 8 бит
Тип развёртки : Прогрессивная
Бит/(Пиксели*Кадры) : 0.261
Размер потока : 6,45 Гбайт (81%)
Библиотека кодирования : x264 core 122 r2184 5c85e0a
Настройки программы : cabac=1 / ref=5 / deblock=1:-1:-1 / analyse=0x3:0x113 / me=umh / subme=8 / psy=1 / psy_rd=1.00:0.15 / mixed_ref=1 / me_range=16 / chroma_me=1 / trellis=1 / 8x8dct=1 / cqm=0 / deadzone=21,11 / fast_pskip=1 / chroma_qp_offset=-3 / threads=12 / sliced_threads=0 / nr=0 / decimate=1 / interlaced=0 / bluray_compat=0 / constrained_intra=0 / bframes=3 / b_pyramid=2 / b_adapt=1 / b_bias=0 / direct=3 / weightb=1 / open_gop=0 / weightp=2 / keyint=250 / keyint_min=23 / scenecut=40 / intra_refresh=0 / rc_lookahead=40 / rc=2pass / mbtree=1 / bitrate=9597 / ratetol=1.0 / qcomp=0.60 / qpmin=0 / qpmax=69 / qpstep=4 / cplxblur=20.0 / qblur=0.5 / ip_ratio=1.40 / aq=1:1.00
Язык : English
Default : Да
Forced : Нет

Аудио #1
Идентификатор : 2
Формат : AC-3
Формат/Информация : Audio Coding 3
Расширение режима : CM (complete main)
Параметр Endianness формата : Big
Идентификатор кодека : A_AC3
Продолжительность : 1 ч. 38 м.
Вид битрейта : Постоянный
Битрейт : 448 Кбит/сек
Каналы : 6 каналов
Расположение каналов : Front: L C R, Side: L R, LFE
Частота : 48,0 КГц
Битовая глубина : 16 бит
Метод сжатия : С потерями
Задержка видео : 1 с. 0 мс.
Размер потока : 316 Мбайт (4%)
Язык : Russian
Default : Да
Forced : Нет

Аудио #2
Идентификатор : 3
Формат : DTS
Формат/Информация : Digital Theater Systems
Идентификатор кодека : A_DTS
Продолжительность : 1 ч. 38 м.
Вид битрейта : Постоянный
Битрейт : 1510 Кбит/сек
Каналы : 6 каналов
Расположение каналов : Front: L C R, Side: L R, LFE
Частота : 48,0 КГц
Битовая глубина : 24 бит
Метод сжатия : С потерями
Размер потока : 1,04 Гбайт (13%)
Язык : English
Default : Нет
Forced : Нет

Меню
00:00:00.000 : en:00:00:00.000
00:05:36.836 : en:00:05:36.836
00:07:25.236 : en:00:07:25.236
00:11:46.915 : en:00:11:46.915
00:14:00.465 : en:00:14:00.465
00:16:54.513 : en:00:16:54.513
00:20:22.680 : en:00:20:22.680
00:23:16.228 : en:00:23:16.228
00:27:37.990 : en:00:27:37.990
00:32:30.323 : en:00:32:30.323
00:36:58.383 : en:00:36:58.383
00:39:49.387 : en:00:39:49.387
00:42:43.478 : en:00:42:43.478
00:45:50.081 : en:00:45:50.081
00:49:37.141 : en:00:49:37.141
00:56:35.642 : en:00:56:35.642
00:58:43.979 : en:00:58:43.979
01:02:47.097 : en:01:02:47.097
01:07:05.939 : en:01:07:05.939
01:11:52.391 : en:01:11:52.391
01:15:35.072 : en:01:15:35.072
01:17:22.847 : en:01:17:22.847
01:26:01.865 : en:01:26:01.865
01:31:32.195 : en:01:31:32.195
Скриншоты:


Время раздачи: 14:00 до 00:00
[NNM-Club.ru]_Shag.vpered.4.2012.BDRip.1080p.mkv.torrent
 Торрент: Платиновая раздача  Зарегистрирован
 
Скачать


 Зарегистрирован:   29 Ноя 2012 19:24:17
 Размер:   7,96 GB  (
 Рейтинг:   4,2 (Голосов: 18)
 Поблагодарили:   90
 Проверка:   Оформление проверено модератором 30 Ноя 2012 21:05:08
Как cкачать  ·  Как раздать  ·  Правильно оформить  ·  Поднять ратио!  
карамба07
Стаж: 7 лет 9 мес.
Сообщений: 19
Ratio: 4,031
100%
на раздачу встаньтЕЕЕЕ!!!!!!!

А то это ЖЖЖЖЖ!
bog3417
Стаж: 8 лет 3 мес.
Сообщений: 198
Ratio: 56,042
Поблагодарили: 11066
100%
ukraine.gif
семплы уже не обязательны по правилах? просто поговаривают что звук не очень - а так бы хотелось заценить(
mike666666
Стаж: 8 лет 6 мес.
Сообщений: 29
Ratio: 9,172
7.32%
теперь бы еще стереопару
Dodi4a4i
Стаж: 8 лет 1 мес.
Сообщений: 14
Ratio: 8,376
100%
Звук плохой, диалоги еле слышно
bormoley
Стаж: 8 лет 7 мес.
Сообщений: 3
Ratio: 3,996
0.13%
bog3417 писал(а): Перейти к сообщению
семплы уже не обязательны по правилах? просто поговаривают что звук не очень - а так бы хотелось заценить(


Звук - полное разочарование.

Пришлось серьёзно повозиться с эквалайзером, чтобы хоть как-то фильм посмотреть.

П.С. Можете попробовать выделить речь и повысить центральный канал.
PKman
Стаж: 9 лет 9 мес.
Сообщений: 234
Ratio: 26,446
Раздал: 22,86 TB
100%
pirates.png
Звук полностью убил, на телеке выкручивал на 100, ставил усиленный звук и через 10 минут выключил и удалил раздачу, зря потратил время((
Показать сообщения:   
Начать новую тему   Ответить на тему    Торрент-трекер NNM-Club -> Зарубежное кино -> Зарубежные Фильмы (HD, UHD-LQ) Часовой пояс: GMT + 3
Страница 1 из 1