Классический форум-трекер
canvas not supported
Нас вместе: 4 077 852

G-Dragon - Crayon (2012) WEBRip [1080p]


 
 
RSS
Начать новую тему   Ответить на тему    Торрент-трекер NNM-Club -> Архив торрентов -> Архив Музыкального Видео
Автор Сообщение
Sakura_msk ®
Стаж: 11 лет 7 мес.
Сообщений: 1529
Ratio: 28,74
Поблагодарили: 5617
100%
G-Dragon - CRAYON


Русское название: G-Dragon
Оригинальное название: Crayon
Год выпуска: 2012
Жанр: K-Pop, Hip-Hop

Описание фильма:
Клип на трек с сольного альбома "One Of A Kind".
G-Dragon (GD, наст. имя Квон Чжи Ён) - лидер популярной южнокорейской поп-группы Big Bang.
Из интервью GD для журнала K& Magazine:
Расскажи о заглавной песне «Crayon».
Это сочетание слов «сумасшедший» и «Чжи Ён». Это означает «просто сходи с ума от G-Dragon так же, как ты сходишь с ума от других вещей» и «давайте слетать с катушек». Когда я работал над этой песней вместе с Teddy, я написал на чистом листе бумаги фразу «Why So Serious?». Это знаменитая строчка из фильма «Тёмный рыцарь». Она мне безумно нравится. Я хочу обратиться ко многим людям: «Почему нужно быть настолько серьёзными?» И я также хочу, чтобы люди, видя моё выступление на сцене, думали: «этот парень действительно сошёл с ума». К счастью, мне удалось этого достичь.

Продолжительность: 00:03:44
Перевод: Отсутствует

Видеокодек: MPEG-4 AVC/H.264
Битрейт видео: ~6 027 Kbps Кбит/сек
Размер кадра: 1920х1080
Качество видео: WEB-DLRip
Аудиокодек: AAC
Битрейт аудио: 192 Кбит/сек VBR, 2 канала
Код:

General
Complete name                    : C:\Documents and Settings\Admin\Рабочий стол\G-DRAGON - CRAYON M-V.mp4
Format                           : MPEG-4
Format profile                   : Base Media / Version 2
Codec ID                         : mp42
File size                        : 166 MiB
Duration                         : 3mn 44s
Overall bit rate                 : 6 222 Kbps
Encoded date                     : UTC 2012-09-15 15:01:12
Tagged date                      : UTC 2012-09-15 15:01:12
gsst                             : 0
gstd                             : 224628
gssd                             : BD075E206HH1354036892319001
gshh                             : r18---sn-4g57kb7e.c.youtube.com

Video
ID                               : 1
Format                           : AVC
Format/Info                      : Advanced Video Codec
Format profile                   : High@L4.0
Format settings, CABAC           : Yes
Format settings, ReFrames        : 1 frame
Codec ID                         : avc1
Codec ID/Info                    : Advanced Video Coding
Duration                         : 3mn 44s
Bit rate                         : 6 027 Kbps
Maximum bit rate                 : 22.9 Mbps
Width                            : 1 920 pixels
Height                           : 1 080 pixels
Display aspect ratio             : 16:9
Frame rate mode                  : Constant
Frame rate                       : 23.976 fps
Color space                      : YUV
Chroma subsampling               : 4:2:0
Bit depth                        : 8 bits
Scan type                        : Progressive
Bits/(Pixel*Frame)               : 0.121
Stream size                      : 161 MiB (97%)
Tagged date                      : UTC 2012-09-15 15:01:13

Audio
ID                               : 2
Format                           : AAC
Format/Info                      : Advanced Audio Codec
Format profile                   : LC
Codec ID                         : 40
Duration                         : 3mn 44s
Bit rate mode                    : Variable
Bit rate                         : 192 Kbps
Maximum bit rate                 : 201 Kbps
Channel(s)                       : 2 channels
Channel positions                : Front: L R
Sampling rate                    : 44.1 KHz
Compression mode                 : Lossy
Stream size                      : 5.14 MiB (3%)
Title                            : IsoMedia File Produced by Google, 5-11-2011
Encoded date                     : UTC 2012-09-15 15:01:13
Tagged date                      : UTC 2012-09-15 15:01:13
Скриншоты:



Время раздачи: с 19 до 08 до первых пяти скачавших
[NNM-Club.ru]_G-DRAGON - CRAYON M-V.mp4.torrent
 Торрент: Золотая раздача  Зарегистрирован
 
Зарегистрируйтесь и скачайте торрент!
13,3 KB

Примагнититься
 Зарегистрирован:   30 Ноя 2012 20:58:04
 Размер:   166 MB  (
 Рейтинг:    (Голосов: 6)
 Поблагодарили:   16
 Проверка:   Оформление проверено модератором 01 Дек 2012 02:03:35
Как cкачать  ·  Как раздать  ·  Правильно оформить  ·  Поднять ратио!  
Топик был перенесен из форума Музыкальные клипы в форум Архив Музыкального Видео

Причина переноса: Раздающего не было более месяца.
Robert Ingil
Показать сообщения:   
Начать новую тему   Ответить на тему    Торрент-трекер NNM-Club -> Архив торрентов -> Архив Музыкального Видео Часовой пояс: GMT + 3
Страница 1 из 1