Классический форум-трекер
canvas not supported
Нас вместе: 4 093 882

Утиные Истории: Заветная лампа / DuckTales: The Movie — Treasure of the Lost Lamp (1990) HDTVRip [1080i]


 
 
RSS
Начать новую тему   Ответить на тему    Торрент-трекер NNM-Club -> Мультфильмы -> Зарубежные Мультфильмы (HD, UHD, UHD-LQ)
Автор Сообщение
denver7979 ®
Зам. Куратора Детского.
Модератор Видео.
RG Всё лучшее - детям!
 
Стаж: 9 лет 2 мес.
Сообщений: 8130
Ratio: 551,411
Раздал: 37,8 TB
Поблагодарили: 327392
100%
Откуда: Земля
ussr.gif
Утиные Истории: Заветная лампа / DuckTales: The Movie — Treasure of the Lost Lamp (1990) HDTVRip [1080i]
Русское название: Утиные Истории: Заветная лампа
Оригинальное название: DuckTales: The Movie — Treasure of the Lost Lamp
Год выпуска: 1990
Жанр: Рисованная анимация

Режиссер: Боб Хэчкок / Bob Hathcock
Персонажи: Алан Янг, Рип Тэйлор, Кристофер Ллойд, Расси Тэйлор, Ричард Либертини, Теренс МакГоверн, Джоан Гербер, Чак МакКанн, Джун Форэй, Чарльз Адлер

Перевод: Многоголосый закадровый
Субтитры: Отсутствуют

Описание:
Запрыгивайте на верблюда, хватайте карту и приготовьтесь к захватывающему веселому приключению вместе с любимыми пернатыми друзьями Скруджем МакДаком, Хьюи, Дьюи, Луи и Веббигейл Вандеркваком!
Присоединяйтесь к команде Утиных Историй, пересекающих египетскую пустыню в бесстрашном поиске легендарных сокровищ Колли Бабы. Захватывающие моменты будут преследовать главных героев на каждом шагу, по мере приближения к сказочным сокровищам, а злой маг Мерлок будет идти по пятам. Но смелые утки и не могли предположить, что вместе с сокровищами найдут волшебную лампу с настоящим джином, исполняющим желания!
Наполненный весельем, приключениями и обожаемыми героями, фильм "Утиные истории: Заветная лампа" — истинная классика студии Дисней, которой насладится вся Ваша семья!



Продолжительность: 01:08:05
Качество видео: HDTVRip

Видео: AVC, 1440x1080 (16:9), 25.000 fps, 10.9 Mbps (0.280 bit/pixel)
Аудио #1: AC-3, 48.0 KHz, 2 ch, 384 Kbps, CBR (Русский)
Аудио #2: AC-3 Dolby Digital, 48.0 KHz, 2 ch, 384 Kbps, CBR (Английский)
Видео
Идентификатор : 1
Формат : AVC
Формат/Информация : Advanced Video Codec
Профиль формата : Main@L4.0
Параметр CABAC формата : Да
Параметр ReFrames формата : 4 кадра
Режим смешивания : Container profile=Unknown@0.0
Идентификатор кодека : V_MPEG4/ISO/AVC
Битрейт : 10,9 Мбит/сек
Ширина : 1440 пикселей
Высота : 1080 пикселей
Соотношение сторон : 16:9
Режим частоты кадров : Переменный
Частота кадров в оригинале : 25,000 кадров/сек
Стандарт вещания : Component
Цветовое пространство : YUV
Субдискретизация насыщенности : 4:2:0
Битовая глубина : 8 бит
Тип развёртки : Чересстрочная
Порядок развёртки : Верхнее поле первое
Заголовок : Release for HDClub
Язык : English
Default : Да
Forced : Нет
Основные цвета : BT.709
Характеристики трансфера : BT.709
Коэффициенты матрицы : BT.709

Аудио #1
Идентификатор : 2
Формат : AC-3
Формат/Информация : Audio Coding 3
Расширение режима : CM (complete main)
Параметр Endianness формата : Big
Идентификатор кодека : A_AC3
Продолжительность : 1 ч. 8 м.
Вид битрейта : Постоянный
Битрейт : 384 Кбит/сек
Каналы : 2 канала
Расположение каналов : Front: L R
Частота : 48,0 КГц
Битовая глубина : 16 бит
Метод сжатия : С потерями
Размер потока : 187 Мбайт (3%)
Заголовок : AC3 2.0 384 Kbps Многоголосый закадровый
Язык : Russian
Default : Да
Forced : Нет

Аудио #2
Идентификатор : 3
Формат : AC-3
Формат/Информация : Audio Coding 3
Профиль формата : Dolby Digital
Расширение режима : CM (complete main)
Параметр Endianness формата : Big
Идентификатор кодека : A_AC3
Продолжительность : 1 ч. 8 м.
Вид битрейта : Постоянный
Битрейт : 384 Кбит/сек
Каналы : 2 канала
Расположение каналов : Front: L R
Частота : 48,0 КГц
Битовая глубина : 16 бит
Метод сжатия : С потерями
Размер потока : 187 Мбайт (3%)
Заголовок : AC3 2.0 384 Kbps
Язык : English
Default : Нет
Forced : Нет
Скриншоты:





Утиные Истории: Заветная лампа на NNM-club

Время раздачи: с 11:00 до 01:00
DuckTales - Treasure of the Lost Lamp (1990.1080i)_NNM-club.mkv.torrent
 Торрент: Платиновая раздача  Зарегистрирован
 
Скачать


Примагнититься
 Зарегистрирован:   01 Дек 2012 16:35:41
 Размер:   5,66 GB  (
 Рейтинг:   4,8 (Голосов: 52)
 Поблагодарили:   181
 Проверка:   Оформление проверено модератором 01 Дек 2012 16:36:05
Как cкачать  ·  Как раздать  ·  Правильно оформить  ·  Поднять ратио!  
Показать сообщения:   
Начать новую тему   Ответить на тему    Торрент-трекер NNM-Club -> Мультфильмы -> Зарубежные Мультфильмы (HD, UHD, UHD-LQ) Часовой пояс: GMT + 3
Страница 1 из 1