Классический форум-трекер
canvas not supported
Нас вместе: 4 084 022
Платим за отзывы

Rihanna - Diamonds (Live at The X Factor Results 25.11.2012) (2012) HDTV 1080i


 
 
RSS
Начать новую тему   Ответить на тему    Торрент-трекер NNM-Club -> Архив торрентов -> Архив Музыкального Видео
Автор Сообщение
epiz0d ®
Стаж: 7 лет 6 мес.
Сообщений: 36
Ratio: 7,084
Поблагодарили: 845
100%
Откуда: Алчевск
ukraine.gif
Rihanna - Diamonds (Live at The X Factor Results 25.11.2012)



Жанр: R'n'B
Продолжительность: 00:05:12
Год выпуска: 2012
Описание: Рианна выступила на британском X Factor со своим последним синглом "Diamonds" 25 ноября 2012.
Качество: HDTV 1080i
Контейнер: TS
Видео кодек: H.264
Аудио кодек: MP2
Видео: H.264 (AVC), 13,7 Mbps, 1920x1080
Аудио: MP2, 2 ch, 256 Kbps, 48 kHz

Общее
Идентификатор : 1 (0x1)
Полное имя : E:\Клипы\Rihanna - Diamonds (Live at The X Factor Results 25.11.2012) HDTV 1080i (IgorekSh).ts
Формат : MPEG-TS
Размер файла : 546 Мбайт
Продолжительность : 5 м. 12 с.
Режим общего битрейта : Переменный
Общий поток : 14,7 Мбит/сек

Видео
Идентификатор : 2362 (0x93A)
Идентификатор меню : 1 (0x1)
Формат : AVC
Формат/Информация : Advanced Video Codec
Профиль формата : High@L4.1
Параметр CABAC формата : Да
Параметр ReFrames формата : 3 кадра
Идентификатор кодека : 27
Продолжительность : 5 м. 12 с.
Вид битрейта : Переменный
Битрейт : 13,7 Мбит/сек
Максимальный битрейт : 18,0 Мбит/сек
Ширина : 1920 пикселей
Высота : 1080 пикселей
Соотношение сторон : 16:9
Частота кадров : 25,000 кадров/сек
Стандарт вещания : PAL
Цветовое пространство : YUV
Субдискретизация насыщенности : 4:2:0
Битовая глубина : 8 бит
Тип развёртки : Чересстрочная
Порядок развёртки : Верхнее поле первое
Бит/(Пиксели*Кадры) : 0.264
Размер потока : 510 Мбайт (93%)
Основные цвета : BT.709
Характеристики трансфера : BT.709
Коэффициенты матрицы : BT.709

Аудио
Идентификатор : 2363 (0x93B)
Идентификатор меню : 1 (0x1)
Формат : MPEG Audio
Версия формата : Version 1
Профиль формата : Layer 2
Идентификатор кодека : 3
Продолжительность : 5 м. 12 с.
Вид битрейта : Постоянный
Битрейт : 256 Кбит/сек
Каналы : 2 канала
Частота : 48,0 КГц
Метод сжатия : С потерями
Размер потока : 9,53 Мбайт (2%)
Язык : English
Время раздачи: C 15:00 до 23:00
[NNM-Club.ru]_Rihanna - Diamonds (Live at The X Factor Results 25.11.2012) HDTV 1080i.ts.torrent
 Торрент: Платиновая раздача  Зарегистрирован
 
Скачать


 Зарегистрирован:   02 Дек 2012 16:07:57
 Размер:   546 MB  (
 Рейтинг:   4,3 (Голосов: 30)
 Поблагодарили:   80
 Проверка:   Оформление проверено модератором 03 Дек 2012 01:37:00
Как cкачать  ·  Как раздать  ·  Правильно оформить  ·  Поднять ратио!  
Loading...
Топик был перенесен из форума Музыкальные клипы в форум Архив Музыкального Видео

Причина переноса: Отсутствие сидов более трех месяцев.

Исправил релиз - напиши ЛС ALLic, дав ссылку на релиз.
Если нет ответа 24 часа - нажми на кнопку "Обратить внимание модераторов".
Показать сообщения:   
Начать новую тему   Ответить на тему    Торрент-трекер NNM-Club -> Архив торрентов -> Архив Музыкального Видео Часовой пояс: GMT + 3
Страница 1 из 1