Классический форум-трекер
canvas not supported
Нас вместе: 4 094 850

Перелом / Fracture (2007) HDRip


 
 
RSS
Начать новую тему   Ответить на тему    Торрент-трекер NNM-Club -> Зарубежное кино -> Зарубежные Фильмы (HD*Rip/LQ, DVDRip, SATRip, VHSRip)
Автор Сообщение
Jurchic ®
Стаж: 9 лет 5 мес.
Сообщений: 862
Ratio: 288,075
Поблагодарили: 70576
100%
Перелом / Fracture (2007) HDRip
Год выпуска: 2007
Страна: США, Германия | Castle Rock Entertainment, M7 Filmproduktion, New Line Cinema, Weinstock Productions
Жанр: Триллер, Криминал, Драма

Описание фильма:
Ассистент окружного прокурора оказывается втянутым в хитроумную игру в «кошки-мышки» человеком, который пытался убить свою жену, но избежал тюремного заключения благодаря нелепой бюрократической ошибке.

Режиссер: Грегори Хоблит
Актеры: Энтони Хопкинс, Райан Гослинг, Дэвид Стрэтэйрн, Розамунд Пайк, Эмбет Дэвидц, Билли Бёрк, Клифф Кёртис, Фиона Шоу, Боб Гантон, Джош Стэмберг...

Продолжительность: 01:53:27
Перевод: Дублированный (МОСФИЛЬМ-мастер 2007)



Дата мировой премьеры: 11 апреля 2007
Дата российской премьеры: 5 июля 2007, «Каро-Премьер»
Дата выхода DVD релиза: 15 июня 2009, «Юниверсал Пикчерс Рус»
Дата выхода Blu-Ray релиза: 2 июня 2009, «Юниверсал Пикчерс Рус»

Видеокодек: Xvid
Битрейт видео: ~787 Кбит/сек
Размер кадра: 688*288
Качество видео: HDRip
Аудиокодек: MP3, 2 канала
Битрейт аудио: 128 Кбит/сек
R — Лицам до 17 лет обязательно присутствие взрослого
Код:
Общее
Полное имя                               : :\\Perelom.HDRip.avi
Формат                                   : AVI
Формат/Информация                        : Audio Video Interleave
Размер файла                             : 750 Мбайт
Продолжительность                        : 1 ч. 53 м.
Общий поток                              : 924 Кбит/сек
Программа кодирования                    : VirtualDubMod 1.5.10.2 (build 2540/release)
Библиотека кодирования                   : VirtualDubMod build 2540/release

Видео
Идентификатор                            : 0
Формат                                   : MPEG-4 Visual
Профиль формата                          : Advanced Simple@L5
Параметр BVOP формата                    : 1
Параметр QPel формата                    : Нет
Параметр GMC формата                     : Без точки перехода
Параметр матрицы формата                 : Выборочная
Идентификатор кодека                     : XVID
Идентификатор кодека/Подсказка           : XviD
Продолжительность                        : 1 ч. 53 м.
Битрейт                                  : 787 Кбит/сек
Ширина                                   : 688 пикселей
Высота                                   : 288 пикселей
Соотношение сторон                       : 2,40:1
Частота кадров                           : 23,976 кадра/сек
Цветовое пространство                    : YUV
Субдискретизация насыщенности            : 4:2:0
Битовая глубина                          : 8 бит
Тип развёртки                            : Прогрессивная
Метод сжатия                             : С потерями
Бит/(Пиксели*Кадры)                      : 0.166
Размер потока                            : 638 Мбайт (85%)
Библиотека кодирования                   : XviD 1.2.1 (UTC 2008-12-04)

Аудио
Идентификатор                            : 1
Формат                                   : MPEG Audio
Версия формата                           : Version 1
Профиль формата                          : Layer 3
Идентификатор кодека                     : 55
Идентификатор кодека/Подсказка           : MP3
Продолжительность                        : 1 ч. 53 м.
Вид битрейта                             : Постоянный
Битрейт                                  : 128 Кбит/сек
Каналы                                   : 2 канала
Частота                                  : 48,0 КГц
Метод сжатия                             : С потерями
Размер потока                            : 104 Мбайт (14%)
Выравнивание                             : Соединение по промежуткам
Продолжительность промежутка             : 42  мс. (1,00 видеокадр)
Время предзагрузки промежутка            : 504  мс.
Библиотека кодирования                   : LAME3.97
Настройки программы                      : -m s -V 4 -q 2 -lowpass 17 -b 128
Скриншоты:

[NNM-Club.ru]Perelom.HDRip.avi.torrent
 Торрент: Платиновая раздача  Зарегистрирован
 
Скачать


Примагнититься
 Зарегистрирован:   03 Дек 2012 00:06:36
 Размер:   750 MB  (
 Рейтинг:   4,8 (Голосов: 52)
 Поблагодарили:   223
 Проверка:   Оформление проверено модератором 03 Дек 2012 12:01:59
Как cкачать  ·  Как раздать  ·  Правильно оформить  ·  Поднять ратио!  

_________________
Если совет хорош, неважно, кто его дал.
PaRaD00000x
Стаж: 7 лет 3 мес.
Сообщений: 134
Ratio: 33,255
100%
witch.png
Зачетное кино :клево:
sen_black
Стаж: 10 лет 9 мес.
Сообщений: 49
Ratio: 2,286
100%
russia.gif
гууд, подтверждаю
Frimen1984
Стаж: 8 лет 2 мес.
Сообщений: 72
Ratio: 1,32
100%
russia.gif
Очень даже неплохо!
stasalj
Стаж: 9 лет 6 мес.
Сообщений: 27
Ratio: 5,165
100%
ukraine.gif
Мне очень понравилось!Стоит посмотреть.
abc-inc
Только чтение
Стаж: 8 лет 9 мес.
Сообщений: 786
Ratio: 5,337
100%
wild_hogs.gif
Что тут сказать, Хопкинс - классика актерского мастерства. Фильмы с его участием - больше чем фильмы. И этот не исключение. Релизеру спасибо за рип.
Приятного просмотра!
ALECS19
Стаж: 8 лет 2 мес.
Сообщений: 119
Ratio: 8,138
Раздал: 6,647 TB
100%
ukraine.gif
Спасибо фильм отличный.
kolman
Стаж: 9 лет 5 мес.
Сообщений: 282
Ratio: 1,341
100%
Откуда: Бельцы
moldova.gif
Фильм не плохой - в стиле Хопкинса, но в данном случае, актёр плавно отходит на задний план и большую часть фильма режиссёр уделяет детективу. Поэтому мне показался фильм немного скучноватым. В сравнении с "Молчанием ягнят", данный психологический триллер, далеко не дотянул...
Показать сообщения:   
Начать новую тему   Ответить на тему    Торрент-трекер NNM-Club -> Зарубежное кино -> Зарубежные Фильмы (HD*Rip/LQ, DVDRip, SATRip, VHSRip) Часовой пояс: GMT + 3
Страница 1 из 1