Классический форум-трекер
canvas not supported
Нас вместе: 4 077 797

Ржевский против Наполеона (2012) BDRip [1080p] [Вертикальная анаморфная стереопара 3D]


 
 
RSS
Начать новую тему   Ответить на тему    Торрент-трекер NNM-Club -> Отечественное кино -> Отечественные Фильмы (3D)
Автор Сообщение
igor nisan ®
RG Всё лучшее - детям!
 
Стаж: 7 лет 11 мес.
Сообщений: 740
Ratio: 51,368
Поблагодарили: 97939
100%
ukraine.gif
Ржевский против Наполеона (2012) BDRip
«В старом добром IIIД»
Русское название: Ржевский против Наполеона
Год выпуска: 2012
Жанр: Комедия...

Описание фильма:
Чтобы развеять скуку, Наполеон Бонапарт затеял мировую войну. Не пропуская ни одной юбки, он оказывается со своей армией у ворот Первопрестольной. Русские полководцы решают внедрить к нему неприступную красавицу, la femme fatal, чтобы отвлечь узурпатора от захватнической деятельности. Только какая настоящая женщина устоит перед обаянием этого великого бабника? Ненастоящая!!! В смысле — переодетый мужчина! И такой мужчина есть — поручик Ржевский…

Режиссер: Марюс Вайсберг
Актеры: Павел Деревянко, Владимир Зеленский, Светлана Ходченкова, Михаил Галустян, Михаил Ефремов, Дмитрий Мухамадеев, Татьяна Орлова, Марат Башаров, Владимир Симонов, Игорь Рубашкин

Продолжительность: 01:23:08



Видеокодек: MPEG-4 AVC/H.264
Битрейт видео: ~14,2 Мбит/сек
Размер кадра: 1920x1080
Качество видео: BDRip
Аудиокодек: AC3 5.1
Битрейт аудио: 640 Кбит/сек
Сэмпл: Ссылка
Общее
Уникальный идентификатор : 174170002091489932311285268544418344577 (0x8307EC183220C0E4BA0987C129A1EE81)
Полное имя : H:\my films\NAPOLEON_3D.mkv
Формат : Matroska
Версия формата : Version 2
Размер файла : 8,80 Гбайт
Продолжительность : 1 ч. 23 м.
Общий поток : 15,2 Мбит/сек
Название фильма : NAPOLEON_3D_crop_over/under
Дата кодирования : UTC 2012-12-06 15:25:54
Программа кодирования : mkvmerge v5.8.0 ('No Sleep / Pillow') built on Sep 2 2012 15:37:04
Библиотека кодирования : libebml v1.2.3 + libmatroska v1.3.0

Видео
Идентификатор : 1
Формат : AVC
Формат/Информация : Advanced Video Codec
Профиль формата : High@L4.1
Параметр CABAC формата : Да
Параметр ReFrames формата : 4 кадра
Режим смешивания : Header stripping
Идентификатор кодека : V_MPEG4/ISO/AVC
Продолжительность : 1 ч. 23 м.
Битрейт : 14,2 Мбит/сек
Ширина : 1920 пикселей
Высота : 1080 пикселей
Соотношение сторон : 16:9
Режим частоты кадров : Постоянный
Частота кадров : 23,976 кадра/сек
Цветовое пространство : YUV
Субдискретизация насыщенности : 4:2:0
Битовая глубина : 8 бит
Тип развёртки : Прогрессивная
Бит/(Пиксели*Кадры) : 0.286
Размер потока : 8,26 Гбайт (94%)
Заголовок : rip by I/N
Библиотека кодирования : x264 core 128 r2216M 198a7ea
Настройки программы : cabac=1 / ref=4 / deblock=1:-3:-3 / analyse=0x3:0x133 / me=tesa / subme=10 / psy=1 / psy_rd=1.00:0.20 / mixed_ref=1 / me_range=16 / chroma_me=1 / trellis=2 / 8x8dct=1 / cqm=1 / deadzone=21,11 / fast_pskip=1 / chroma_qp_offset=-3 / threads=4 / lookahead_threads=1 / sliced_threads=0 / nr=0 / decimate=1 / interlaced=0 / bluray_compat=0 / constrained_intra=0 / bframes=4 / b_pyramid=2 / b_adapt=2 / b_bias=0 / direct=2 / weightb=1 / open_gop=0 / weightp=2 / keyint=230 / keyint_min=23 / scenecut=60 / intra_refresh=0 / rc_lookahead=60 / rc=crf / mbtree=1 / crf=16.0 / qcomp=0.60 / qpmin=10 / qpmax=60 / qpstep=6 / vbv_maxrate=40000 / vbv_bufsize=30000 / crf_max=30.0 / nal_hrd=none / ip_ratio=1.40 / aq=1:0.70
Язык : Russian
Default : Да
Forced : Нет

Аудио
Идентификатор : 2
Формат : AC-3
Формат/Информация : Audio Coding 3
Расширение режима : CM (complete main)
Параметр Endianness формата : Big
Режим смешивания : Header stripping
Идентификатор кодека : A_AC3
Продолжительность : 1 ч. 23 м.
Вид битрейта : Постоянный
Битрейт : 640 Кбит/сек
Каналы : 6 каналов
Расположение каналов : Front: L C R, Side: L R, LFE
Частота : 48,0 КГц
Битовая глубина : 16 бит
Метод сжатия : С потерями
Размер потока : 381 Мбайт (4%)
Язык : Russian
Default : Да
Forced : Нет
Скриншоты:

Справа и слева у видеоряда обрезано по 248р, что дает возможность просмотра на полный экран (без черных полос) на телевизорах с соотношением сторон 16:9 без изменения пропорций. На мой взгляд плюсы данных рипов- это более глубокое восприятие 3D-эффектов (конечно там где они есть) К минусам отнесу- вынужденное обрезание кадра по бокам. Так-что господа- выбор за вами! Всем приятного просмотра!
Проверено на встроенном плейере ТВ Samsung-D6500
Ржевский против Наполеона на NNM-club
Время раздачи: 24/7 - круглосуточно до 15 скачавших
[NNM-Club.ru]_NAPOLEON_3D.mkv.torrent
 Торрент: Платиновая раздача  Зарегистрирован
 
Скачать


 Зарегистрирован:   06 Дек 2012 19:28:27
 Размер:   8,8 GB  (
 Рейтинг:   3,8 (Голосов: 68)
 Поблагодарили:   245
 Проверка:   Оформление проверено модератором 07 Дек 2012 07:40:51
Как cкачать  ·  Как раздать  ·  Правильно оформить  ·  Поднять ратио!  
magira
Стаж: 8 лет 5 мес.
Сообщений: 16
Ratio: 3,371
Поблагодарили: 1181
53.7%
Откуда: Воронеж
russia.gif
Фильм ни о чем, аналогия "Гитлер капут" (и команда актеров та-же)- для поколения "Пепси" если только. Досмотрел до конца, только чтобы досмотреть. Зачем в 3D снят - если ни одного толкового эффекта? Даже эпизод с Жан-Клод Ван Даммом не прибавил яркости (Поколение "Пепси" такого актера и не знает). В общем: релиз хороший, сюжет так себе, зря место занимает - недельку по-раздаю - удалю.
Grey_231
Стаж: 9 лет
Сообщений: 63
Ratio: 9,962
Поблагодарили: 419
100%
russia.gif
Заценю. Отпишусь.

_________________
В загадке интересна не истина,
которую она скрывает, а тайна, которую она хранит.
vit0505
Стаж: 8 лет 5 мес.
Сообщений: 230
Ratio: 24,395
Раздал: 27,32 TB
Поблагодарили: 427
100%
russia.gif
igor nisan, где дорога с речью?
При удалении дорог, проверяй что заливаешь, ДЕ...Л!!!
XaoTik
Стаж: 6 лет 2 мес.
Сообщений: 2
Ratio: 28,793
0.77%
Grey_231 писал(а): Перейти к сообщению
Заценю. Отпишусь.


Долго еще ждать отписки? Никак начать смотреть не могу
Показать сообщения:   
Начать новую тему   Ответить на тему    Торрент-трекер NNM-Club -> Отечественное кино -> Отечественные Фильмы (3D) Часовой пояс: GMT + 3
Страница 1 из 1