Классический форум-трекер
canvas not supported
Нас вместе: 4 079 179

Инопланетянин / E.T. the Extra-Terrestrial (1982) BDRip


 
 
RSS
Начать новую тему   Ответить на тему    Торрент-трекер NNM-Club -> Видео -> Зарубежные Фильмы для детей
Автор Сообщение
Morozkin ®
Стаж: 7 лет
Сообщений: 4
Ratio: 84,684
Поблагодарили: 1203
100%
ussr.gif
Инопланетянин / E.T. the Extra-Terrestrial (1982) BDRip«The Story that Touched the World!»
Русское название: Инопланетянин
Оригинальное название: E.T. the Extra-Terrestrial
Год выпуска: 1982
Жанр: Фантастика, Фэнтези, Драма
Перевод: Дублированный
Субтитры: Отсутствуют

Режиссер: Стивен Спилберг
Актеры: Генри Томас, Дрю Бэрримор, Ди Уоллес-Стоун, Питер Койот, Роберт МакНотон, К. Ч. Мартел, Шон Фрай, С. Томас Хауэлл, Эрика Элениак, Дэвид М. О’Делл

Описание фильма:
Инопланетянин, телом похожий на черепаху без панциря, а мордочкой одновременно на мопса и Альберта Эйнштейна, прилетел на землю с мирными намерениями — в составе научно-исследовательской группы. Специалисты из NASA заметили приближение летающей тарелки и посчитали, что просто обязаны отловить хотя бы одну из инопланетных тварей.

Несчастные существа были вынуждены ретироваться настолько спешно, что забыли захватить одного из коллег. Земной мальчик Эллиот, а также его брат и сестра, которую играет семилетняя Дрю Бэрримор, преодолевая отвращение к неприятно выглядящей твари, спасают ее.

Релиз от:
Дата мировой премьеры: 26 мая 1982
Дата выхода Blu-Ray релиза: 25 октября 2012, «Двадцатый Век Фокс СНГ»
Продолжительность: 01:54:29
Качество видео: BDRip

Видеокодек: XviD
Битрейт видео: ~1951 kbps
Размер кадра: 704x384 (1.83:1)
Аудио 1: Русская озвучка (48 kHz, AC3 Dolby Digital, 3/2 (L,C,R,l,r) + LFE ch, ~384.00 kbps avg)
Аудио 2: Оригинальная озвучка (48 kHz, AC3 Dolby Digital, 3/2 (L,C,R,l,r) + LFE ch, ~384.00 kbps avg)
General
Complete name : F:\Фильмы\Inoplanetyanin.1982.BDRip.avi
Format : AVI
Format/Info : Audio Video Interleave
Format profile : OpenDML
File size : 2.18 GiB
Duration : 1h 54mn
Overall bit rate : 2 726 Kbps
Movie name : Инопланетянин / E.T.: The Extra-Terrestrial (1982) BDRip
Director : Orbit
Genre : фантастика, фэнтези, драма
Writing application : VirtualDubMod 1.5.10.2 (build 2542/release)
Copyright : hqclub.net

Video
ID : 0
Format : MPEG-4 Visual
Format profile : Advanced Simple@L5
Format settings, BVOP : 1
Format settings, QPel : No
Format settings, GMC : No warppoints
Format settings, Matrix : Custom
Codec ID : XVID
Codec ID/Hint : XviD
Duration : 1h 54mn
Bit rate : 1 941 Kbps
Width : 704 pixels
Height : 384 pixels
Display aspect ratio : 1.85:1
Frame rate : 23.976 fps
Color space : YUV
Chroma subsampling : 4:2:0
Bit depth : 8 bits
Scan type : Progressive
Compression mode : Lossy
Bits/(Pixel*Frame) : 0.299
Stream size : 1.55 GiB (71%)
Writing library : XviD 65

Audio #1
ID : 1
Format : AC-3
Format/Info : Audio Coding 3
Mode extension : CM (complete main)
Format settings, Endianness : Big
Codec ID : 2000
Duration : 1h 54mn
Bit rate mode : Constant
Bit rate : 384 Kbps
Channel(s) : 6 channels
Channel positions : Front: L C R, Side: L R, LFE
Sampling rate : 48.0 KHz
Bit depth : 16 bits
Compression mode : Lossy
Stream size : 314 MiB (14%)
Alignment : Split accross interleaves
Interleave, duration : 42 ms (1.00 video frame)
Interleave, preload duration : 500 ms

Audio #2
ID : 2
Format : AC-3
Format/Info : Audio Coding 3
Mode extension : CM (complete main)
Format settings, Endianness : Big
Codec ID : 2000
Duration : 1h 54mn
Bit rate mode : Constant
Bit rate : 384 Kbps
Channel(s) : 6 channels
Channel positions : Front: L C R, Side: L R, LFE
Sampling rate : 48.0 KHz
Bit depth : 16 bits
Compression mode : Lossy
Stream size : 315 MiB (14%)
Alignment : Split accross interleaves
Interleave, duration : 42 ms (1.00 video frame)
Interleave, preload duration : 500 ms

Скриншоты:






Время раздачи: 24/7
[NNM-Club.ru]_Inoplanetyanin.1982.BDRip.avi.torrent
 Торрент: Платиновая раздача  Зарегистрирован
 
Скачать


Примагнититься
 Зарегистрирован:   08 Дек 2012 11:56:18
 Размер:   2,18 GB  (
 Рейтинг:   4,9 (Голосов: 100)
 Поблагодарили:   352
 Проверка:   Оформление проверено модератором 08 Дек 2012 12:30:18
Как cкачать  ·  Как раздать  ·  Правильно оформить  ·  Поднять ратио!  
murlocotam
Стаж: 8 лет 6 мес.
Сообщений: 148
Ratio: 21,999
22.39%
ussr.gif
Идти телефон дамой.
Alekair
Стаж: 8 лет 8 мес.
Сообщений: 28
Ratio: 12,234
47.39%
Фильм моего детства, таких классных фильмов уже давно не делают. Давно хотел скачать и пересмотреть, забираю!
murad8305
Стаж: 8 лет
Сообщений: 7
Ratio: 4,252
3.13%
russia.gif
фильм детства
bahmak
Стаж: 8 лет 10 мес.
Сообщений: 31
Ratio: 10,865
100%
классный фильм, хочу деткам показать
Показать сообщения:   
Начать новую тему   Ответить на тему    Торрент-трекер NNM-Club -> Видео -> Зарубежные Фильмы для детей Часовой пояс: GMT + 3
Страница 1 из 1