Классический форум-трекер
canvas not supported
Нас вместе: 4 079 210

В гостях у сказки (сборник 56 фильмов) (1939-2009) DVDRip


Страницы:   Пред.  1, 2, 3, 4  След. 
 
RSS
Начать новую тему   Ответить на тему    Торрент-трекер NNM-Club -> Видео -> Отечественные Фильмы для детей
Автор Сообщение
андрей фил ®
Стаж: 9 лет 4 мес.
Сообщений: 15
Ratio: 2,09
Раздал: 326 GB
Поблагодарили: 2173
100%
russia.gif
В гостях у сказки (сборник 56 фильмов) (1939-2009) DVDRip

Страна: СССР, Россия
Жанр: приключения, семейный, сказка, комедия
Перевод: Не требуется
Режиссер: Александр Роу, Ролан Быков, Александр Птушко и др.
В ролях: Ролан Быков, Олег Ефремов, Алексей Смирнов, Фрунзик Мкртчян, Евгений Моргунов, Александр Абдулов, Алла Демидова, Сергей Мартинсон,Михаил Пуговкин, Георгий Милляр,Зиновий Гердт, Леонид Каневский и др.

Описание:«В гостях у сказки» — популярная советская детская телевизионная передача, транслировавшаяся в 1970-е — 1980-е годы каждое воскресенье и когда-то в субботу в 16.00 по Первой программе Центрального телевидения. Длительность передачи (включая фильм) — 1 час 45 минут. Передача начиналась с мультипликационной заставки (было несколько вариантов, включая «новогодний» для зимних каникул) под мелодию песни «Приходите в гости к нам». В передаче показывали детские фильмы-сказки. Часто показывались в передаче сказки Александра Роу и Александра Птушко, а также сказки, снятые режиссёрами из социалистических стран.
Год выпуска: 1980
Страна: СССР
Жанр: Комедия, мюзикл, семейный
Продолжительность: 01:33:36
Перевод: Оригинальный русский
Режиссер: Ролан Быков
В ролях: Ролан Быков, Олег Ефремов , Лидия Князева, Евгений Васильев, Алексей Смирнов, Фрунзик Мкртчян, Геннадий Юдин, Игорь Ясулович, Илья Рутберг, Раднэр Муратов, Руслан Ахметов, Людмила Карауш, Георгий Совчис, Владимир Пицек, Юрий Мартынов, Леонид Енгибаров, Константин Худяков, Гурген Джанибекян, Владимир Протасенко, Светлана Швайко, Вадим Грачев, Людмила Марченко.

Оописание:Эксцентрическая музыкальная комедия по мотивам изветной сказки К. И. Чуковского. Этот яркий остроумный фильм весело и ненавязчиво рассказывает о добре и зле, о справедливости и настоящей дружбе, рассказывает не только детям, но и взрослым.

Параметры видео/аудио;
Качество: DVDRip
Формат: AVI
Видео: 688x288 (2.39:1), 25 fps, DivX Codec 5.x or 6.x ~1631 kbps avg, 0.33 bit/pixel
Аудио: 48 kHz, AC3 Dolby Digital, 3/2 (L,C,R,l,r) + LFE ch, ~448.00 kbps avg

Полное имя : E:\Видео\В гостях у сказки\Айболит-66\Айболит-66.avi
Формат : AVI
Формат/Информация : Audio Video Interleave
Размер файла : 1,37 Гбайт
Продолжительность : 1 ч. 33 м.
Общий поток : 2090 Кбит/сек
Программа кодирования : VirtualDubMod 1.5.10.2 (build 2540/release)
Библиотека кодирования : VirtualDubMod build 2540/release

Видео
Идентификатор : 0
Формат : MPEG-4 Visual
Параметр BVOP формата : 1
Параметр QPel формата : Нет
Параметр GMC формата : Без точки перехода
Параметр матрицы формата : Default (H.263)
Режим смешивания : Сжатый битовый поток
Идентификатор кодека : DX50
Идентификатор кодека/Подсказка : DivX 5
Продолжительность : 1 ч. 33 м.
Битрейт : 1632 Кбит/сек
Ширина : 688 пикселей
Высота : 288 пикселей
Соотношение сторон : 2,40:1
Частота кадров : 25,000 кадров/сек
Цветовое пространство : YUV
Субдискретизация насыщенности : 4:2:0
Битовая глубина : 8 бит
Тип развёртки : Прогрессивная
Метод сжатия : С потерями
Бит/(Пиксели*Кадры) : 0.329
Размер потока : 1,07 Гбайт (78%)
Библиотека кодирования : DivX 6.6.1.4

Аудио
Идентификатор : 1
Формат : AC-3
Формат/Информация : Audio Coding 3
Расширение режима : CM (complete main)
Параметр Endianness формата : Big
Идентификатор кодека : 2000
Продолжительность : 1 ч. 33 м.
Вид битрейта : Постоянный
Битрейт : 448 Кбит/сек
Каналы : 6 каналов
Расположение каналов : Front: L C R, Side: L R, LFE
Частота : 48,0 КГц
Битовая глубина : 16 бит
Метод сжатия : С потерями
Размер потока : 300 Мбайт (21%)
Выравнивание : Разделение по промежуткам
Продолжительность промежутка : 40 мс. (1,00 видеокадр)
Время предзагрузки промежутка : 500 мс.
Время раздачи: с 19.00-3.00
[NNM-Club.ru]_V gostyah u skazki.torrent
 Торрент: Платиновая раздача  Зарегистрирован
 
Скачать


Примагнититься
 Зарегистрирован:   13 Дек 2012 19:44:50
 Размер:   76,4 GB  (
 Рейтинг:   4,9 (Голосов: 522)
 Поблагодарили:   1528
 Проверка:   Оформление проверено модератором 31 Дек 2014 10:01:06
Как cкачать  ·  Как раздать  ·  Правильно оформить  ·  Поднять ратио!  
viktormih
Стаж: 6 лет 4 мес.
Сообщений: 1
Ratio: 40,572
0%
Большое спасибо!!!
skontsevoy
Стаж: 9 лет 1 мес.
Сообщений: 3
Ratio: 3,906
100%
Очуметь, да ты прямо Дед Мороз 2014. Спасибо от души.
DOKTOP77
Стаж: 9 лет 2 мес.
Сообщений: 70
Ratio: 27,657
Поблагодарили: 56
12.33%
russia.gif
Скачаю, буду на раздаче до 12 января, 24 часа
Спасибо !
bunt28
Стаж: 9 лет 6 мес.
Сообщений: 73
Ratio: 0,299
11.8%
germany.gif
НА ЗЛАТОМ КРЫЛЬЦЕ СИДЕЛИ смотрел в году этак 95 в стерео варианте в очках
Dryzkin
Стаж: 9 лет 7 мес.
Сообщений: 80
Ratio: 44,407
100%
Вещь!
CAMOXA113
Стаж: 5 лет 8 мес.
Сообщений: 25
Ratio: 3,902
98.99%
:поклоняется: :НГ_прыжок: :новогоднее пиво:
fotokukla
Стаж: 5 лет 5 мес.
Сообщений: 14
Ratio: 1,494
81.66%
спасибо!!!
Valeriy_vrn
Стаж: 8 лет 6 мес.
Сообщений: 38
Ratio: 17,193
100%
Откуда: Воронеж
ussr.gif
Спасибо Огромное! Буду на раздаче все выходные! :НГ_прыжок: :НГ_прыжок: :НГ_прыжок:
bymb
Стаж: 7 лет 4 мес.
Сообщений: 2
Ratio: 7,78
100%
:поцелуй: Большое спасибо андрей фил ®!!! Дети будут балдеть от счастья!!! и я тоже!Спасибо от души.
Egg
Стаж: 9 лет
Сообщений: 1864
Ratio: 14,529
Поблагодарили: 1277
100%
russia.gif
АЙБОЛИТ-66
Год выпуска: 1980

Исправьте уже, а то смотришь на другую инфу и думаешь, так ли, как написано?
Впрочем уже не так - Там, на НЕВЕДАННЫХ дорожках. А. С. Пушкин, если что...

_________________
Он был очень образованным человеком: в его браузере закладка на Википедию стояла первой.
TorentMan
Стаж: 6 лет 4 мес.
Сообщений: 34
Ratio: 0,76
100%
Да помню, помню. В детстве не пропускал ни одного выпуска В гостях у сказки... Спасибо за такой сборник...
MAA71
 
Стаж: 11 лет 2 мес.
Сообщений: 333
Ratio: 43,236
Поблагодарили: 992
100%
Откуда: Ильичевск
ukraine.gif
Шикарно!
RiLLSV
Стаж: 8 лет 9 мес.
Сообщений: 114
Ratio: 5,618
100%
Откуда: Ufa
russia.gif
Одна из лучших раздач на трекере, имхо !
Большое спасибо !!! Доча будет расти на нормальном контенте у меня теперь)) и не надо по крупицам искать, ваще каиф !!!
SaneG_2
Стаж: 10 лет
Сообщений: 464
Ratio: 26,028
Поблагодарили: 386
100%
сборка отличная, жаль что двд нынче малоактуален...наш мосфиль или госкино как обычно "on the edge of technology".
малыш1970
Стаж: 6 лет 3 мес.
Сообщений: 1
Ratio: 6,129
0%
для тех кто не в курсе... есть ресурс arjlover.net
Показать сообщения:   
Начать новую тему   Ответить на тему    Торрент-трекер NNM-Club -> Видео -> Отечественные Фильмы для детей Часовой пояс: GMT + 3
Страницы:   Пред.  1, 2, 3, 4  След.
Страница 2 из 4