Классический форум-трекер
canvas not supported
Нас вместе: 4 094 420

Полярный экспресс / The Polar Express (2004) [1080p] BDRip


 
 
RSS
Начать новую тему   Ответить на тему    Торрент-трекер NNM-Club -> Мультфильмы -> Зарубежные Мультфильмы (HD, UHD, UHD-LQ)
Автор Сообщение
pilligrim21 ®
Модератор Музыки
RG Music
 
Стаж: 8 лет 7 мес.
Сообщений: 3243
Ratio: 137,708
Раздал: 51,76 TB
Поблагодарили: 120815
100%
ussr.gif
Полярный экспресс / The Polar Express (2004) BDRip
...Для всех тех, кто искренне верит...
Год выпуска: 2004
Жанр: Детский, Приключения, Фэнтези, Семейный.

Бюджет $165 000 000

Дата мировой премьеры: 21 октября 2004,
Дата российской премьеры: 23 декабря 2004, «Каро-Премьер»
Дата выхода на DVD:17 ноября 2009, «Юниверсал Пикчерс Рус»
Дата выхода Blu-Ray релиза: 17 ноября 2009, «Юниверсал Пикчерс Рус»

Режиссер: Роберт Земекис
В ролях: Том Хэнкс, Майкл Джитер, Нона Гей, Питер Сколари, Эдди Дизен, Лесли Хартер Земекис, Чарльз Флайшер, Джош Эли, Марк Мендонка, Роландас Хендрикс

Описание:
Экранизация одноименной детской книги о необыкновенном путешествии маленького мальчика на волшебном поезде «Полярный экспресс» на Северный полюс к Санта-Клаусу в канун Рождества…



Формат: MKV
Видеокодек: MPEG4/AVC/H 264
Продолжительность: 01:40:08
Качество видео: BDRip
Битрейт видео: ~9600 kbps
Размер кадра: 1920x796

Аудио-1: Русский: 48 kHz, AC3, 5.1, ~640.00 kbps Дубляж.
Аудио-2: Русский: 48 kHz, AC3, 5.1, ~448.00 kbps Многоголосый закадровый.
Аудио-3: Русский: 48 kHz, DTS, 5.1, ~768.00 kbps Одноголосый, В. Королёв.
Аудио-4: Английский: 48 kHz, DTS, 5.1, ~1536.00 kbps
Субтитры: Русские, украинские, английские.
  • Роли матери и сестры главного героя «сыграла» жена Роберта Земекиса - Лесли.
  • Фильм вошёл в Книгу рекордов Гиннесса как первый фильм, где вся игра актёров передана оцифровкой реальных людей.
  • Том Хэнкс «играет» пять ролей в этом фильме: мальчик-главный герой, его отец, проводник, Дух Рождества и Санта Клаус.
  • Адрес, который называет кондуктор в самом начале фильма, - реальный адрес дома, где жил в детстве Роберт Земекис.
  • В сцене, где главный герой дёргает за паровозный гудок, он говорит: «Я мечтал об этом всю жизнь!». То же самое делает Эммет Браун в другом фильме Роберта Земекиса «Назад в Будущее 3».
  • Фильм поставлен по небольшому рассказу Криса Ван Оллсбурга «Полярный Экспресс», изданной в 1985 году. Рассказ состоял всего из 32 страниц, на которых при этом было огромное количество иллюстраций (Ван Оллсбург в первую очередь художник). Поэтому во многом сюжет рассказа дополняли личные идеи Роберта Земекиса.
  • Паровоз, который тянет Полярный экспресс, смоделирован с реально существующего паровоза «Pere Marquette 1225», который хранится в железнодорожном институте города Овоссо, штат Мичиган. Сотрудники Skywalker Sound специально приезжали в Овоссо записывать его звуки (стук колес, выпуск пара, свист....). Этот паровоз 1941 года постройки, планировалось пустить на слом в 1951 году. Однако в 1957 году он был приобретен Университетом штата Мичиган, и выставлен на территории кампуса. В 1971 году группа энтузиастов начала восстановление локомотива, до рабочего состояния. Восстановление было завершено в 1985 году, и в 1988 году этот паровоз стал таскать экскурсионные поезда.
Общее
Уникальный идентификатор : 250677468259665612483933628040990275135 (0xBC96B9687A305A89BB2725F3B0BDB63F)
Полное имя : E:\NNM-CLUB\The.Polar.Express.2004.1080p.BluRay.3xRus.Ukr.Eng.HDCLUB-Skazhutin.mkv
Формат : Matroska
Версия формата : Version 2
Размер файла : 9,05 Гбайт
Продолжительность : 1 ч. 40 м.
Общий поток : 12,9 Мбит/сек
Название фильма : The Polar Express (2004) - Release for HDCLUB by Skazhutin
Дата кодирования : UTC 2012-12-13 07:02:56
Программа кодирования : mkvmerge v5.8.0 ('No Sleep / Pillow') built on Sep 2 2012 15:37:04
Библиотека кодирования : libebml v1.2.3 + libmatroska v1.3.0
Attachements : cover.jpg / xlog.txt

Видео
Идентификатор : 1
Формат : AVC
Формат/Информация : Advanced Video Codec
Профиль формата : High@L4.1
Параметр CABAC формата : Да
Параметр ReFrames формата : 5 кадров
Идентификатор кодека : V_MPEG4/ISO/AVC
Продолжительность : 1 ч. 40 м.
Битрейт : 9600 Кбит/сек
Ширина : 1920 пикселей
Высота : 796 пикселей
Соотношение сторон : 2,40:1
Режим частоты кадров : Постоянный
Частота кадров : 23,976 кадра/сек
Цветовое пространство : YUV
Субдискретизация насыщенности : 4:2:0
Битовая глубина : 8 бит
Тип развёртки : Прогрессивная
Бит/(Пиксели*Кадры) : 0.262
Размер потока : 6,52 Гбайт (72%)
Заголовок : Release for HDCLUB
Библиотека кодирования : x264 core 129 r2230kMod 1cffe9f
Настройки программы : cabac=1 / ref=5 / deblock=1:-1:-1 / analyse=0x3:0x113 / me=umh / subme=11 / psy=1 / fade_compensate=0.00 / psy_rd=0.90:0.00 / mixed_ref=1 / me_range=48 / chroma_me=1 / trellis=2 / 8x8dct=1 / cqm=0 / deadzone=21,11 / fast_pskip=1 / chroma_qp_offset=-2 / threads=12 / lookahead_threads=2 / sliced_threads=0 / nr=0 / decimate=1 / interlaced=0 / bluray_compat=0 / constrained_intra=0 / bframes=7 / b_pyramid=2 / b_adapt=2 / b_bias=0 / direct=3 / weightb=1 / open_gop=0 / weightp=2 / keyint=250 / keyint_min=23 / scenecut=40 / intra_refresh=0 / rc_lookahead=40 / rc=2pass / mbtree=0 / bitrate=9600 / ratetol=1.0 / qcomp=0.70 / qpmin=0 / qpmax=69 / qpstep=4 / cplxblur=20.0 / qblur=0.5 / vbv_maxrate=50000 / vbv_bufsize=62500 / nal_hrd=none / ip_ratio=1.40 / pb_ratio=1.30 / aq=1:1.00
Язык : English
Default : Да
Forced : Нет
Коэффициенты матрицы : BT.709
colour_range : Limited

Аудио #1
Идентификатор : 2
Формат : AC-3
Формат/Информация : Audio Coding 3
Расширение режима : CM (complete main)
Параметр Endianness формата : Big
Идентификатор кодека : A_AC3
Продолжительность : 1 ч. 40 м.
Вид битрейта : Постоянный
Битрейт : 640 Кбит/сек
Каналы : 6 каналов
Расположение каналов : Front: L C R, Side: L R, LFE
Частота : 48,0 КГц
Битовая глубина : 16 бит
Метод сжатия : С потерями
Размер потока : 458 Мбайт (5%)
Заголовок : AC3 5.1 @ 640 kbps - Dub, Blu-ray CEE
Язык : Russian
Default : Да
Forced : Нет

Аудио #2
Идентификатор : 3
Формат : AC-3
Формат/Информация : Audio Coding 3
Расширение режима : CM (complete main)
Параметр Endianness формата : Big
Идентификатор кодека : A_AC3
Продолжительность : 1 ч. 40 м.
Вид битрейта : Постоянный
Битрейт : 448 Кбит/сек
Каналы : 6 каналов
Расположение каналов : Front: L C R, Side: L R, LFE
Частота : 48,0 КГц
Битовая глубина : 16 бит
Метод сжатия : С потерями
Задержка видео : 16 мс.
Размер потока : 321 Мбайт (3%)
Заголовок : AC3 5.1 @ 448 kbps - MVO
Язык : Russian
Default : Нет
Forced : Нет

Аудио #3
Идентификатор : 4
Формат : DTS
Формат/Информация : Digital Theater Systems
Режим : 16
Параметр Endianness формата : Big
Идентификатор кодека : A_DTS
Продолжительность : 1 ч. 40 м.
Вид битрейта : Постоянный
Битрейт : 755 Кбит/сек
Каналы : 6 каналов
Расположение каналов : Front: L C R, Side: L R, LFE
Частота : 48,0 КГц
Битовая глубина : 24 бит
Метод сжатия : С потерями
Размер потока : 540 Мбайт (6%)
Заголовок : DTS 5.1 @ 768 kbps - VO, Korolev
Язык : Russian
Default : Нет
Forced : Нет

Аудио #4
Идентификатор : 5
Формат : DTS
Формат/Информация : Digital Theater Systems
Режим : 16
Параметр Endianness формата : Big
Идентификатор кодека : A_DTS
Продолжительность : 1 ч. 40 м.
Вид битрейта : Постоянный
Битрейт : 1509 Кбит/сек
Каналы : 6 каналов
Расположение каналов : Front: L C R, Side: L R, LFE
Частота : 48,0 КГц
Битовая глубина : 24 бит
Метод сжатия : С потерями
Размер потока : 1,06 Гбайт (12%)
Заголовок : DTS 5.1 @ 1536 kbps
Язык : English
Default : Нет
Forced : Нет

Текст #1
Идентификатор : 6
Формат : UTF-8
Идентификатор кодека : S_TEXT/UTF8
Идентификатор кодека/Информация : UTF-8 Plain Text
Язык : Russian
Default : Нет
Forced : Нет

Текст #2
Идентификатор : 7
Формат : UTF-8
Идентификатор кодека : S_TEXT/UTF8
Идентификатор кодека/Информация : UTF-8 Plain Text
Язык : Ukrainian
Default : Нет
Forced : Нет

Текст #3
Идентификатор : 8
Формат : UTF-8
Идентификатор кодека : S_TEXT/UTF8
Идентификатор кодека/Информация : UTF-8 Plain Text
Язык : English
Default : Нет
Forced : Нет

Меню
00:00:00.000 : en:Christmas Eve
00:05:07.473 : en:All Aboard
00:09:46.919 : en:Another Passenger
00:15:16.415 : en:Hot Chocolate
00:18:19.765 : en:Ticket on the Loose
00:23:08.220 : en:Hobo on the Roof
00:28:07.519 : en:Look Who's Driving
00:33:43.688 : en:Caribou Conversation
00:35:25.289 : en:Hitting the Ice
00:41:37.328 : en:Forsaken Toys
00:44:45.015 : en:When Christmas Comes to Town
00:47:06.156 : en:The Polar Express
00:49:18.622 : en:Where's The Brake?
00:53:25.869 : en:Steven Gets a Break
00:57:18.435 : en:Billy's Present
01:01:08.998 : en:Elf Action
01:05:55.785 : en:Readying for Santa
01:09:55.191 : en:I Believe
01:12:56.205 : en:First Gift of Christmas
01:16:28.250 : en:Dash Away All
01:19:37.939 : en:Tickets Fully Punched
01:21:51.406 : en:What Matters
01:27:10.058 : en:For Whom the Bell Rings
01:31:21.142 : en:End Credits
Скриншоты:
Время раздачи: С 16.00 до 21.00 по Москве.Реставрация от: master-13
[NNM-Club.ru]_The.Polar.Express.2004.Rus.Ukr.Eng..mkv.torrent
 Торрент: Платиновая раздача  Зарегистрирован
 
Скачать


Примагнититься
 Зарегистрирован:   19 Дек 2012 19:20:41
 Размер:   9,05 GB  (
 Рейтинг:   4,9 (Голосов: 141)
 Поблагодарили:   550
 Проверка:   Оформление проверено модератором 19 Дек 2012 21:31:23
410015737850799Номер кошелька для желающих помочь в покупке компа с большим объемом памяти.
Как cкачать  ·  Как раздать  ·  Правильно оформить  ·  Поднять ратио!  

_________________
Исправил релиз - напиши мне в со ссылкой на него.
Правила и рекомендации по оформлению релизов категории МУЗЫКА [19.02.2017]
zaharovich
Стаж: 8 лет 8 мес.
Сообщений: 14
Ratio: 1,133
100%
russia.gif
мне 60 лет,но этот мультфильм вызывает
что-то чертовски хорошее
Cthutq55
Uploader 500+
Стаж: 9 лет 2 мес.
Сообщений: 282
Ratio: 1558,515
100%
Абсолютно согласен с предыдущим постом
master-13
Новогодний эрудит Реставратор
Стаж: 10 лет 9 мес.
Сообщений: 744
Ratio: 546,484
Поблагодарили: 40581
100%
Откуда: из пролетариев
ussr.gif
Полярный экспресс / The Polar Express (2004) BDRip
...Для всех тех, кто искренне верит...
Русское название: Полярный экспресс
Оригинальное название: The Polar Express
Страна: США
Год выпуска: 2004
Жанр: Детский, Приключения, Фэнтези, Семейный.

Бюджет $165 000 000



Дата мировой премьеры: 21 октября 2004,
Дата российской премьеры: 23 декабря 2004, «Каро-Премьер»
Дата выхода на DVD:17 ноября 2009, «Юниверсал Пикчерс Рус»
Дата выхода Blu-Ray релиза: 17 ноября 2009, «Юниверсал Пикчерс Рус»

Режиссер: Роберт Земекис
В ролях: Том Хэнкс, Майкл Джитер, Нона Гей, Питер Сколари, Эдди Дизен, Лесли Хартер Земекис, Чарльз Флайшер, Джош Эли, Марк Мендонка, Роландас Хендрикс

Описание фильма:
Экранизация одноименной детской книги о необыкновенном путешествии маленького мальчика на волшебном поезде «Полярный экспресс» на Северный полюс к Санта-Клаусу в канун Рождества…

Формат: MKV
Видеокодек: MPEG4/AVC/H 264
Продолжительность: 01:40:08
Качество видео: BDRip
Битрейт видео: ~9600 kbps
Размер кадра: 1920x796

Аудио-1: Русский: 48 kHz, AC3, 5.1, ~640.00 kbps Дубляж.
Аудио-2: Русский: 48 kHz, AC3, 5.1, ~448.00 kbps Многоголосый закадровый.
Аудио-3: Русский: 48 kHz, DTS, 5.1, ~768.00 kbps Одноголосый, В. Королёв.
Аудио-4: Английский: 48 kHz, DTS, 5.1, ~1536.00 kbps
Субтитры: Русские, украинские, английские.
  • Роли матери и сестры главного героя «сыграла» жена Роберта Земекиса - Лесли.
  • Фильм вошёл в Книгу рекордов Гиннесса как первый фильм, где вся игра актёров передана оцифровкой реальных людей.
  • Том Хэнкс «играет» пять ролей в этом фильме: мальчик-главный герой, его отец, проводник, Дух Рождества и Санта Клаус.
  • Адрес, который называет кондуктор в самом начале фильма, - реальный адрес дома, где жил в детстве Роберт Земекис.
  • В сцене, где главный герой дёргает за паровозный гудок, он говорит: «Я мечтал об этом всю жизнь!». То же самое делает Эммет Браун в другом фильме Роберта Земекиса «Назад в Будущее 3».
  • Фильм поставлен по небольшому рассказу Криса Ван Оллсбурга «Полярный Экспресс», изданной в 1985 году. Рассказ состоял всего из 32 страниц, на которых при этом было огромное количество иллюстраций (Ван Оллсбург в первую очередь художник). Поэтому во многом сюжет рассказа дополняли личные идеи Роберта Земекиса.
  • Паровоз, который тянет Полярный экспресс, смоделирован с реально существующего паровоза «Pere Marquette 1225», который хранится в железнодорожном институте города Овоссо, штат Мичиган. Сотрудники Skywalker Sound специально приезжали в Овоссо записывать его звуки (стук колес, выпуск пара, свист....). Этот паровоз 1941 года постройки, планировалось пустить на слом в 1951 году. Однако в 1957 году он был приобретен Университетом штата Мичиган, и выставлен на территории кампуса. В 1971 году группа энтузиастов начала восстановление локомотива, до рабочего состояния. Восстановление было завершено в 1985 году, и в 1988 году этот паровоз стал таскать экскурсионные поезда.
Общее
Уникальный идентификатор : 250677468259665612483933628040990275135 (0xBC96B9687A305A89BB2725F3B0BDB63F)
Полное имя : E:\NNM-CLUB\The.Polar.Express.2004.1080p.BluRay.3xRus.Ukr.Eng.HDCLUB-Skazhutin.mkv
Формат : Matroska
Версия формата : Version 2
Размер файла : 9,05 Гбайт
Продолжительность : 1 ч. 40 м.
Общий поток : 12,9 Мбит/сек
Название фильма : The Polar Express (2004) - Release for HDCLUB by Skazhutin
Дата кодирования : UTC 2012-12-13 07:02:56
Программа кодирования : mkvmerge v5.8.0 ('No Sleep / Pillow') built on Sep 2 2012 15:37:04
Библиотека кодирования : libebml v1.2.3 + libmatroska v1.3.0
Attachements : cover.jpg / xlog.txt

Видео
Идентификатор : 1
Формат : AVC
Формат/Информация : Advanced Video Codec
Профиль формата : High@L4.1
Параметр CABAC формата : Да
Параметр ReFrames формата : 5 кадров
Идентификатор кодека : V_MPEG4/ISO/AVC
Продолжительность : 1 ч. 40 м.
Битрейт : 9600 Кбит/сек
Ширина : 1920 пикселей
Высота : 796 пикселей
Соотношение сторон : 2,40:1
Режим частоты кадров : Постоянный
Частота кадров : 23,976 кадра/сек
Цветовое пространство : YUV
Субдискретизация насыщенности : 4:2:0
Битовая глубина : 8 бит
Тип развёртки : Прогрессивная
Бит/(Пиксели*Кадры) : 0.262
Размер потока : 6,52 Гбайт (72%)
Заголовок : Release for HDCLUB
Библиотека кодирования : x264 core 129 r2230kMod 1cffe9f
Настройки программы : cabac=1 / ref=5 / deblock=1:-1:-1 / analyse=0x3:0x113 / me=umh / subme=11 / psy=1 / fade_compensate=0.00 / psy_rd=0.90:0.00 / mixed_ref=1 / me_range=48 / chroma_me=1 / trellis=2 / 8x8dct=1 / cqm=0 / deadzone=21,11 / fast_pskip=1 / chroma_qp_offset=-2 / threads=12 / lookahead_threads=2 / sliced_threads=0 / nr=0 / decimate=1 / interlaced=0 / bluray_compat=0 / constrained_intra=0 / bframes=7 / b_pyramid=2 / b_adapt=2 / b_bias=0 / direct=3 / weightb=1 / open_gop=0 / weightp=2 / keyint=250 / keyint_min=23 / scenecut=40 / intra_refresh=0 / rc_lookahead=40 / rc=2pass / mbtree=0 / bitrate=9600 / ratetol=1.0 / qcomp=0.70 / qpmin=0 / qpmax=69 / qpstep=4 / cplxblur=20.0 / qblur=0.5 / vbv_maxrate=50000 / vbv_bufsize=62500 / nal_hrd=none / ip_ratio=1.40 / pb_ratio=1.30 / aq=1:1.00
Язык : English
Default : Да
Forced : Нет
Коэффициенты матрицы : BT.709
colour_range : Limited

Аудио #1
Идентификатор : 2
Формат : AC-3
Формат/Информация : Audio Coding 3
Расширение режима : CM (complete main)
Параметр Endianness формата : Big
Идентификатор кодека : A_AC3
Продолжительность : 1 ч. 40 м.
Вид битрейта : Постоянный
Битрейт : 640 Кбит/сек
Каналы : 6 каналов
Расположение каналов : Front: L C R, Side: L R, LFE
Частота : 48,0 КГц
Битовая глубина : 16 бит
Метод сжатия : С потерями
Размер потока : 458 Мбайт (5%)
Заголовок : AC3 5.1 @ 640 kbps - Dub, Blu-ray CEE
Язык : Russian
Default : Да
Forced : Нет

Аудио #2
Идентификатор : 3
Формат : AC-3
Формат/Информация : Audio Coding 3
Расширение режима : CM (complete main)
Параметр Endianness формата : Big
Идентификатор кодека : A_AC3
Продолжительность : 1 ч. 40 м.
Вид битрейта : Постоянный
Битрейт : 448 Кбит/сек
Каналы : 6 каналов
Расположение каналов : Front: L C R, Side: L R, LFE
Частота : 48,0 КГц
Битовая глубина : 16 бит
Метод сжатия : С потерями
Задержка видео : 16 мс.
Размер потока : 321 Мбайт (3%)
Заголовок : AC3 5.1 @ 448 kbps - MVO
Язык : Russian
Default : Нет
Forced : Нет

Аудио #3
Идентификатор : 4
Формат : DTS
Формат/Информация : Digital Theater Systems
Режим : 16
Параметр Endianness формата : Big
Идентификатор кодека : A_DTS
Продолжительность : 1 ч. 40 м.
Вид битрейта : Постоянный
Битрейт : 755 Кбит/сек
Каналы : 6 каналов
Расположение каналов : Front: L C R, Side: L R, LFE
Частота : 48,0 КГц
Битовая глубина : 24 бит
Метод сжатия : С потерями
Размер потока : 540 Мбайт (6%)
Заголовок : DTS 5.1 @ 768 kbps - VO, Korolev
Язык : Russian
Default : Нет
Forced : Нет

Аудио #4
Идентификатор : 5
Формат : DTS
Формат/Информация : Digital Theater Systems
Режим : 16
Параметр Endianness формата : Big
Идентификатор кодека : A_DTS
Продолжительность : 1 ч. 40 м.
Вид битрейта : Постоянный
Битрейт : 1509 Кбит/сек
Каналы : 6 каналов
Расположение каналов : Front: L C R, Side: L R, LFE
Частота : 48,0 КГц
Битовая глубина : 24 бит
Метод сжатия : С потерями
Размер потока : 1,06 Гбайт (12%)
Заголовок : DTS 5.1 @ 1536 kbps
Язык : English
Default : Нет
Forced : Нет

Текст #1
Идентификатор : 6
Формат : UTF-8
Идентификатор кодека : S_TEXT/UTF8
Идентификатор кодека/Информация : UTF-8 Plain Text
Язык : Russian
Default : Нет
Forced : Нет

Текст #2
Идентификатор : 7
Формат : UTF-8
Идентификатор кодека : S_TEXT/UTF8
Идентификатор кодека/Информация : UTF-8 Plain Text
Язык : Ukrainian
Default : Нет
Forced : Нет

Текст #3
Идентификатор : 8
Формат : UTF-8
Идентификатор кодека : S_TEXT/UTF8
Идентификатор кодека/Информация : UTF-8 Plain Text
Язык : English
Default : Нет
Forced : Нет

Меню
00:00:00.000 : en:Christmas Eve
00:05:07.473 : en:All Aboard
00:09:46.919 : en:Another Passenger
00:15:16.415 : en:Hot Chocolate
00:18:19.765 : en:Ticket on the Loose
00:23:08.220 : en:Hobo on the Roof
00:28:07.519 : en:Look Who's Driving
00:33:43.688 : en:Caribou Conversation
00:35:25.289 : en:Hitting the Ice
00:41:37.328 : en:Forsaken Toys
00:44:45.015 : en:When Christmas Comes to Town
00:47:06.156 : en:The Polar Express
00:49:18.622 : en:Where's The Brake?
00:53:25.869 : en:Steven Gets a Break
00:57:18.435 : en:Billy's Present
01:01:08.998 : en:Elf Action
01:05:55.785 : en:Readying for Santa
01:09:55.191 : en:I Believe
01:12:56.205 : en:First Gift of Christmas
01:16:28.250 : en:Dash Away All
01:19:37.939 : en:Tickets Fully Punched
01:21:51.406 : en:What Matters
01:27:10.058 : en:For Whom the Bell Rings
01:31:21.142 : en:End Credits
Скриншоты:
Время раздачи: С 16.00 до 21.00 по Москве.Реставрация от: master-13
Код: выделить все
[align=center][color=blue][size=20][b]Полярный экспресс / The Polar Express (2004) BDRip[/b][/size][/color][/align][hr]
[align=center][color=blue][size=20]...Для всех тех, кто искренне верит...[/size][/color][/align][hr]
[poster=right]http://i.imgur.com/GVzDnN5.jpg[/poster]

[b]Русское название:[/b] Полярный экспресс
[b]Оригинальное название:[/b] The Polar Express
[b]Страна:[/b] США
[b]Год выпуска:[/b] 2004
[b]Жанр:[/b] Детский, Приключения, Фэнтези, Семейный.

[b]Бюджет[/b] $165 000 000

[imdb]tt0338348[/imdb] [kp]3755[/kp]

[b]Дата мировой премьеры:[/b] 21 октября 2004,
[b]Дата российской премьеры:[/b] 23 декабря 2004, «Каро-Премьер»
[b]Дата выхода на DVD:[/b]17 ноября 2009, «Юниверсал Пикчерс Рус»
[b]Дата выхода Blu-Ray релиза:[/b] 17 ноября 2009, «Юниверсал Пикчерс Рус»

[b]Режиссер:[/b] Роберт Земекис
[b]В ролях:[/b] Том Хэнкс, Майкл Джитер, Нона Гей, Питер Сколари, Эдди Дизен, Лесли Хартер Земекис, Чарльз Флайшер, Джош Эли, Марк Мендонка, Роландас Хендрикс

[b]Описание фильма:[/b]
Экранизация одноименной детской книги о необыкновенном путешествии маленького мальчика на волшебном поезде «Полярный экспресс» на Северный полюс к Санта-Клаусу в канун Рождества…

[b]Формат:[/b] MKV
[b]Видеокодек:[/b] MPEG4/AVC/H 264
[b]Продолжительность:[/b] 01:40:08
[b]Качество видео:[/b] BDRip
[b]Битрейт видео:[/b] ~9600 kbps
[b]Размер кадра:[/b] 1920x796

[b]Аудио-1:[/b] Русский: 48 kHz, AC3, 5.1, ~640.00 kbps  Дубляж.
[b]Аудио-2:[/b] Русский: 48 kHz, AC3, 5.1, ~448.00 kbps Многоголосый закадровый.
[b]Аудио-3:[/b] Русский: 48 kHz, DTS, 5.1, ~768.00 kbps Одноголосый, В. Королёв.
[b]Аудио-4:[/b] Английский: 48 kHz, DTS, 5.1, ~1536.00 kbps
[b]Субтитры:[/b] Русские, украинские, английские.

[hide=Знаете ли вы, что...]
[list][*]Роли матери и сестры главного героя «сыграла» жена Роберта Земекиса - Лесли.
[*]Фильм вошёл в Книгу рекордов Гиннесса как первый фильм, где вся игра актёров передана оцифровкой реальных людей.
[*]Том Хэнкс «играет» пять ролей в этом фильме: мальчик-главный герой, его отец, проводник, Дух Рождества и Санта Клаус.
[*]Адрес, который называет кондуктор в самом начале фильма, - реальный адрес дома, где жил в детстве Роберт Земекис.
[*]В сцене, где главный герой дёргает за паровозный гудок, он говорит: «Я мечтал об этом всю жизнь!». То же самое делает Эммет Браун в другом фильме Роберта Земекиса «Назад в Будущее 3».
[*]Фильм поставлен по небольшому рассказу Криса Ван Оллсбурга «Полярный Экспресс», изданной в 1985 году. Рассказ состоял всего из 32 страниц, на которых при этом было огромное количество иллюстраций (Ван Оллсбург в первую очередь художник). Поэтому во многом сюжет рассказа дополняли личные идеи Роберта Земекиса.
[*]Паровоз, который тянет Полярный экспресс, смоделирован с реально существующего паровоза «Pere Marquette 1225», который хранится в железнодорожном институте города Овоссо, штат Мичиган. Сотрудники Skywalker Sound специально приезжали в Овоссо записывать его звуки (стук колес, выпуск пара, свист....). Этот паровоз 1941 года постройки, планировалось пустить на слом в 1951 году. Однако в 1957 году он был приобретен Университетом штата Мичиган, и выставлен на территории кампуса. В 1971 году группа энтузиастов начала восстановление локомотива, до рабочего состояния. Восстановление было завершено в 1985 году, и в 1988 году этот паровоз стал таскать экскурсионные поезда.[/list][/hide]

[hide=MediaInfo]
Общее
Уникальный идентификатор                 : 250677468259665612483933628040990275135 (0xBC96B9687A305A89BB2725F3B0BDB63F)
Полное имя                               : E:\NNM-CLUB\The.Polar.Express.2004.1080p.BluRay.3xRus.Ukr.Eng.HDCLUB-Skazhutin.mkv
Формат                                   : Matroska
Версия формата                           : Version 2
Размер файла                             : 9,05 Гбайт
Продолжительность                        : 1 ч. 40 м.
Общий поток                              : 12,9 Мбит/сек
Название фильма                          : The Polar Express (2004) - Release for HDCLUB by Skazhutin
Дата кодирования                         : UTC 2012-12-13 07:02:56
Программа кодирования                    : mkvmerge v5.8.0 ('No Sleep / Pillow') built on Sep  2 2012 15:37:04
Библиотека кодирования                   : libebml v1.2.3 + libmatroska v1.3.0
Attachements                             : cover.jpg / xlog.txt

Видео
Идентификатор                            : 1
Формат                                   : AVC
Формат/Информация                        : Advanced Video Codec
Профиль формата                          : High@L4.1
Параметр CABAC формата                   : Да
Параметр ReFrames формата                : 5 кадров
Идентификатор кодека                     : V_MPEG4/ISO/AVC
Продолжительность                        : 1 ч. 40 м.
Битрейт                                  : 9600 Кбит/сек
Ширина                                   : 1920 пикселей
Высота                                   : 796 пикселей
Соотношение сторон                       : 2,40:1
Режим частоты кадров                     : Постоянный
Частота кадров                           : 23,976 кадра/сек
Цветовое пространство                    : YUV
Субдискретизация насыщенности            : 4:2:0
Битовая глубина                          : 8 бит
Тип развёртки                            : Прогрессивная
Бит/(Пиксели*Кадры)                      : 0.262
Размер потока                            : 6,52 Гбайт (72%)
Заголовок                                : Release for HDCLUB
Библиотека кодирования                   : x264 core 129 r2230kMod 1cffe9f
Настройки программы                      : cabac=1 / ref=5 / deblock=1:-1:-1 / analyse=0x3:0x113 / me=umh / subme=11 / psy=1 / fade_compensate=0.00 / psy_rd=0.90:0.00 / mixed_ref=1 / me_range=48 / chroma_me=1 / trellis=2 / 8x8dct=1 / cqm=0 / deadzone=21,11 / fast_pskip=1 / chroma_qp_offset=-2 / threads=12 / lookahead_threads=2 / sliced_threads=0 / nr=0 / decimate=1 / interlaced=0 / bluray_compat=0 / constrained_intra=0 / bframes=7 / b_pyramid=2 / b_adapt=2 / b_bias=0 / direct=3 / weightb=1 / open_gop=0 / weightp=2 / keyint=250 / keyint_min=23 / scenecut=40 / intra_refresh=0 / rc_lookahead=40 / rc=2pass / mbtree=0 / bitrate=9600 / ratetol=1.0 / qcomp=0.70 / qpmin=0 / qpmax=69 / qpstep=4 / cplxblur=20.0 / qblur=0.5 / vbv_maxrate=50000 / vbv_bufsize=62500 / nal_hrd=none / ip_ratio=1.40 / pb_ratio=1.30 / aq=1:1.00
Язык                                     : English
Default                                  : Да
Forced                                   : Нет
Коэффициенты матрицы                     : BT.709
colour_range                             : Limited

Аудио #1
Идентификатор                            : 2
Формат                                   : AC-3
Формат/Информация                        : Audio Coding 3
Расширение режима                        : CM (complete main)
Параметр Endianness формата              : Big
Идентификатор кодека                     : A_AC3
Продолжительность                        : 1 ч. 40 м.
Вид битрейта                             : Постоянный
Битрейт                                  : 640 Кбит/сек
Каналы                                   : 6 каналов
Расположение каналов                     : Front: L C R, Side: L R, LFE
Частота                                  : 48,0 КГц
Битовая глубина                          : 16 бит
Метод сжатия                             : С потерями
Размер потока                            : 458 Мбайт (5%)
Заголовок                                : AC3 5.1 @ 640 kbps - Dub, Blu-ray CEE
Язык                                     : Russian
Default                                  : Да
Forced                                   : Нет

Аудио #2
Идентификатор                            : 3
Формат                                   : AC-3
Формат/Информация                        : Audio Coding 3
Расширение режима                        : CM (complete main)
Параметр Endianness формата              : Big
Идентификатор кодека                     : A_AC3
Продолжительность                        : 1 ч. 40 м.
Вид битрейта                             : Постоянный
Битрейт                                  : 448 Кбит/сек
Каналы                                   : 6 каналов
Расположение каналов                     : Front: L C R, Side: L R, LFE
Частота                                  : 48,0 КГц
Битовая глубина                          : 16 бит
Метод сжатия                             : С потерями
Задержка видео                           : 16 мс.
Размер потока                            : 321 Мбайт (3%)
Заголовок                                : AC3 5.1 @ 448 kbps - MVO
Язык                                     : Russian
Default                                  : Нет
Forced                                   : Нет

Аудио #3
Идентификатор                            : 4
Формат                                   : DTS
Формат/Информация                        : Digital Theater Systems
Режим                                    : 16
Параметр Endianness формата              : Big
Идентификатор кодека                     : A_DTS
Продолжительность                        : 1 ч. 40 м.
Вид битрейта                             : Постоянный
Битрейт                                  : 755 Кбит/сек
Каналы                                   : 6 каналов
Расположение каналов                     : Front: L C R, Side: L R, LFE
Частота                                  : 48,0 КГц
Битовая глубина                          : 24 бит
Метод сжатия                             : С потерями
Размер потока                            : 540 Мбайт (6%)
Заголовок                                : DTS 5.1 @ 768 kbps - VO, Korolev
Язык                                     : Russian
Default                                  : Нет
Forced                                   : Нет

Аудио #4
Идентификатор                            : 5
Формат                                   : DTS
Формат/Информация                        : Digital Theater Systems
Режим                                    : 16
Параметр Endianness формата              : Big
Идентификатор кодека                     : A_DTS
Продолжительность                        : 1 ч. 40 м.
Вид битрейта                             : Постоянный
Битрейт                                  : 1509 Кбит/сек
Каналы                                   : 6 каналов
Расположение каналов                     : Front: L C R, Side: L R, LFE
Частота                                  : 48,0 КГц
Битовая глубина                          : 24 бит
Метод сжатия                             : С потерями
Размер потока                            : 1,06 Гбайт (12%)
Заголовок                                : DTS 5.1 @ 1536 kbps
Язык                                     : English
Default                                  : Нет
Forced                                   : Нет

Текст #1
Идентификатор                            : 6
Формат                                   : UTF-8
Идентификатор кодека                     : S_TEXT/UTF8
Идентификатор кодека/Информация          : UTF-8 Plain Text
Язык                                     : Russian
Default                                  : Нет
Forced                                   : Нет

Текст #2
Идентификатор                            : 7
Формат                                   : UTF-8
Идентификатор кодека                     : S_TEXT/UTF8
Идентификатор кодека/Информация          : UTF-8 Plain Text
Язык                                     : Ukrainian
Default                                  : Нет
Forced                                   : Нет

Текст #3
Идентификатор                            : 8
Формат                                   : UTF-8
Идентификатор кодека                     : S_TEXT/UTF8
Идентификатор кодека/Информация          : UTF-8 Plain Text
Язык                                     : English
Default                                  : Нет
Forced                                   : Нет

Меню
00:00:00.000                             : en:Christmas Eve
00:05:07.473                             : en:All Aboard
00:09:46.919                             : en:Another Passenger
00:15:16.415                             : en:Hot Chocolate
00:18:19.765                             : en:Ticket on the Loose
00:23:08.220                             : en:Hobo on the Roof
00:28:07.519                             : en:Look Who's Driving
00:33:43.688                             : en:Caribou Conversation
00:35:25.289                             : en:Hitting the Ice
00:41:37.328                             : en:Forsaken Toys
00:44:45.015                             : en:When Christmas Comes to Town
00:47:06.156                             : en:The Polar Express
00:49:18.622                             : en:Where's The Brake?
00:53:25.869                             : en:Steven Gets a Break
00:57:18.435                             : en:Billy's Present
01:01:08.998                             : en:Elf Action
01:05:55.785                             : en:Readying for Santa
01:09:55.191                             : en:I Believe
01:12:56.205                             : en:First Gift of Christmas
01:16:28.250                             : en:Dash Away All
01:19:37.939                             : en:Tickets Fully Punched
01:21:51.406                             : en:What Matters
01:27:10.058                             : en:For Whom the Bell Rings
01:31:21.142                             : en:End Credits

[/hide]

[align=center][b]Скриншоты:[/b]
[url=http://s7.hostingkartinok.com/uploads/images/2014/12/6ba6e1c296725b8b4e1659604cc58adb.png][img]http://s7.hostingkartinok.com/uploads/images/2014/12/4dae77b8613f6a0c67ee38d1837ce271.jpg[/img][/url]  [url=http://s7.hostingkartinok.com/uploads/images/2014/12/15e4d86131786bf33005f711952a2aa8.png][img]http://s7.hostingkartinok.com/uploads/images/2014/12/e212b33d8199fe14a4872a6078c0e833.jpg[/img][/url]  [url=http://s7.hostingkartinok.com/uploads/images/2014/12/fb6796ef74bda558e9e32aa3a24e992a.png][img]http://s7.hostingkartinok.com/uploads/images/2014/12/804ad67e69406664b64698d5ee14a9fe.jpg[/img][/url]  [url=http://s7.hostingkartinok.com/uploads/images/2014/12/6cedd3c5724eac768951ad3bcc4d3483.png][img]http://s7.hostingkartinok.com/uploads/images/2014/12/2613699b3fe2e4f72c141815629d5da3.jpg[/img][/url][/align]
[hide=Дополнительные скриншоты:]
[align=center][url=http://s7.hostingkartinok.com/uploads/images/2014/12/7aedd5a56819ff9e59cf97096a52c815.png][img]http://s7.hostingkartinok.com/uploads/images/2014/12/a8cc2d5447ac064ca6dfe3748fea7fc6.jpg[/img][/url]  [url=http://s7.hostingkartinok.com/uploads/images/2014/12/4fdc5708f315733cd1d55125642cfce7.png][img]http://s7.hostingkartinok.com/uploads/images/2014/12/eb71b618d1b0b3876a221ac57f5ec9dc.jpg[/img][/url]  [url=http://s7.hostingkartinok.com/uploads/images/2014/12/d8b6711c65039c6a2fc280a58b5e2ba8.png][img]http://s7.hostingkartinok.com/uploads/images/2014/12/848431bee5f80e8b3cf5cd5091b4e928.jpg[/img][/url]  [url=http://s7.hostingkartinok.com/uploads/images/2014/12/56b2b2a28197983ea2e4e3811f3ad856.png][img]http://s7.hostingkartinok.com/uploads/images/2014/12/6244585d8edd5800e65a306b98629b4d.jpg[/img][/url][/align][/hide]

[b]Время раздачи:[/b] С 16.00 до 21.00 по Москве.[align=right][color=transparent][b]Реставрация от: [/b]master-13[/color][/align]

_________________
230-220·0,5=5!
20-10:2=5!!
egor1948
Стаж: 6 лет 3 мес.
Сообщений: 101
Ratio: 742,322
100%
Откуда: москва
russia.gif
Релизеру респект, но мульт удивительно скучный, несмотря на неплохую графику.
plutikov
Предупреждений: 1
Предупреждений: 1 
Стаж: 6 лет 7 мес.
Сообщений: 105
Ratio: 7,292
Поблагодарили: 4
2.76%
zaharovich писал(а): Перейти к сообщению
мне 60 лет,но этот мультфильм вызывает
что-то чертовски хорошее
60 лет, внуки обучили интернотом)))?
SoulEater
Модератор Музыки
Реставратор
Стаж: 6 лет 5 мес.
Сообщений: 4807
Ratio: 37,936
Поблагодарили: 27805
100%
nnm-club.gif
plutikov писал(а): Перейти к сообщению
zaharovich писал(а): Перейти к сообщению
мне 60 лет,но этот мультфильм вызывает
что-то чертовски хорошее
60 лет, внуки обучили интернотом)))?

А Вы весьма не воспитанный человек!
oalexx
Стаж: 6 лет 10 мес.
Сообщений: 174
Ratio: 5,424
72.54%
Абсолютно согласен с предыдущим постом
ШмякБряк
Стаж: 8 лет 10 мес.
Сообщений: 435
Ratio: 6,01
100%
russia.gif
Замечательный фильм.
ZeePRO
Стаж: 12 лет 11 мес.
Сообщений: 391
Ratio: 7,858
Раздал: 58,67 TB
Поблагодарили: 5
72.87%
Откуда: Москва
russia.gif
Спасибо за Королёва

_________________
Всё, что нас убивает, делает нас мертвее.
100 Mbps 100 Mbps 24/7
Win7x64 - Case Aerocool Strike-X ST - Asus X79 Deluxe - Intel Core i7 4820K - 4x4Gb Corsair RAM - GIGABYTE R9 290 4GB - [sys] 240GB Sasmsung EVO PRO SSD x 2 + 2x150GB WD VelociRaptor RAID0 + 4x4TB Seagate + 3TB WD + 1TB Seagate
Показать сообщения:   
Начать новую тему   Ответить на тему    Торрент-трекер NNM-Club -> Мультфильмы -> Зарубежные Мультфильмы (HD, UHD, UHD-LQ) Часовой пояс: GMT + 3
Страница 1 из 1