Классический форум-трекер
canvas not supported
Нас вместе: 4 120 883

Джузеппе Москати: Исцеляющая любовь / Giuseppe Moscati: L'amore che guarisce (2007) DVDRip (2 серии из 2)


 
 
RSS
Начать новую тему   Ответить на тему    Торрент-трекер NNM-Club -> Зарубежные сериалы
Автор Сообщение
Jurchic ®
Стаж: 9 лет 10 мес.
Сообщений: 861
Ratio: 289,077
Поблагодарили: 71009
100%
Джузеппе Москати: Исцеляющая любовь / Giuseppe Moscati: L'amore che guarisce (2007) DVDRip
Год выпуска: 2007
Страна: Италия | Artis Edizioni Digitali, Castingart2222, Sacha Film
Жанр: Биография

Описание фильма:
История святого Джузеппе Москати — неаполитанского врача и величайшего гуманиста. Москати всю свою жизнь декларировал, что главная сила — любовь. Он постоянно доказывал это, сочетая блестящие врачебные способности с любовью к ближнему. Москати утверждал, что даже простое сочувствие исцелит больного скорее, чем равнодушное исполнение врачом своих обязанностей, и убеждал в этом своих учеников.

Режиссер: Джакомо Кампиотти
Актеры: Беппе Фиорелло, Касия Смутняк, Этторе Басси, Кармин Боррино, Паола Каселла, Джорджо Коланджели, Марко Гамбино, Эмануэла Гримальда, Антонелла Стефануччи, Джузеппе Зено....

Продолжительность: 01:27:52 + 01:28:43
Перевод: Многоголосый закадровый (ГТРК Культура)



Дата мировой премьеры: 26 сентября 2007

Видеокодек: Xvid
Битрейт видео: ~2155 Кбит/сек
Размер кадра: 720*424
Качество видео: DVDRip
Аудиокодек: AC3 2.0 | AC3 2.0
Битрейт аудио: 192 Кбит/сек
Аудио#1: Русский (ГТРК Культура)
Аудио#2: Итальянский (отдельным файлом)
Джузеппе Москати был причислен к лику Святых Папой Иоанном Павлом II 25 октября 1987г.
Код:
Общее
Полное имя                               : :\\Giuseppe Moscati DVDrip-rus\Giuseppe Moscati-1.avi
Формат                                   : AVI
Формат/Информация                        : Audio Video Interleave
Размер файла                             : 1,45 Гбайт
Продолжительность                        : 1 ч. 27 м.
Общий поток                              : 2357 Кбит/сек
Программа кодирования                    : VirtualDubMod 1.5.10.2 (build 2540/release)
Библиотека кодирования                   : VirtualDubMod build 2540/release

Видео
Идентификатор                            : 0
Формат                                   : MPEG-4 Visual
Профиль формата                          : Advanced Simple@L5
Параметр BVOP формата                    : 1
Параметр QPel формата                    : Нет
Параметр GMC формата                     : Без точки перехода
Параметр матрицы формата                 : Default (MPEG)
Идентификатор кодека                     : XVID
Идентификатор кодека/Подсказка           : XviD
Продолжительность                        : 1 ч. 27 м.
Битрейт                                  : 2155 Кбит/сек
Ширина                                   : 720 пикселей
Высота                                   : 424 пикселя
Соотношение сторон                       : 1,698
Частота кадров                           : 25,000 кадров/сек
Цветовое пространство                    : YUV
Субдискретизация насыщенности            : 4:2:0
Битовая глубина                          : 8 бит
Тип развёртки                            : Прогрессивная
Метод сжатия                             : С потерями
Бит/(Пиксели*Кадры)                      : 0.282
Размер потока                            : 1,32 Гбайт (91%)
Библиотека кодирования                   : XviD 64

Аудио
Идентификатор                            : 1
Формат                                   : AC-3
Формат/Информация                        : Audio Coding 3
Расширение режима                        : CM (complete main)
Параметр Endianness формата              : Big
Идентификатор кодека                     : 2000
Продолжительность                        : 1 ч. 27 м.
Вид битрейта                             : Постоянный
Битрейт                                  : 192 Кбит/сек
Каналы                                   : 2 канала
Расположение каналов                     : Front: L R
Частота                                  : 48,0 КГц
Битовая глубина                          : 16 бит
Метод сжатия                             : С потерями
Размер потока                            : 121 Мбайт (8%)
Выравнивание                             : Разделение по промежуткам
Продолжительность промежутка             : 40  мс. (1,00 видеокадр)
Время предзагрузки промежутка            : 500  мс.
Код:
Общее
Полное имя                               : :\\Giuseppe Moscati DVDrip-rus\Giuseppe Moscati-2.avi
Формат                                   : AVI
Формат/Информация                        : Audio Video Interleave
Размер файла                             : 1,46 Гбайт
Продолжительность                        : 1 ч. 28 м.
Общий поток                              : 2357 Кбит/сек
Программа кодирования                    : VirtualDubMod 1.5.10.2 (build 2540/release)
Библиотека кодирования                   : VirtualDubMod build 2540/release

Видео
Идентификатор                            : 0
Формат                                   : MPEG-4 Visual
Профиль формата                          : Advanced Simple@L5
Параметр BVOP формата                    : 1
Параметр QPel формата                    : Нет
Параметр GMC формата                     : Без точки перехода
Параметр матрицы формата                 : Default (MPEG)
Идентификатор кодека                     : XVID
Идентификатор кодека/Подсказка           : XviD
Продолжительность                        : 1 ч. 28 м.
Битрейт                                  : 2155 Кбит/сек
Ширина                                   : 720 пикселей
Высота                                   : 424 пикселя
Соотношение сторон                       : 1,698
Частота кадров                           : 25,000 кадров/сек
Цветовое пространство                    : YUV
Субдискретизация насыщенности            : 4:2:0
Битовая глубина                          : 8 бит
Тип развёртки                            : Прогрессивная
Метод сжатия                             : С потерями
Бит/(Пиксели*Кадры)                      : 0.282
Размер потока                            : 1,34 Гбайт (91%)
Библиотека кодирования                   : XviD 64

Аудио
Идентификатор                            : 1
Формат                                   : AC-3
Формат/Информация                        : Audio Coding 3
Расширение режима                        : CM (complete main)
Параметр Endianness формата              : Big
Идентификатор кодека                     : 2000
Продолжительность                        : 1 ч. 28 м.
Вид битрейта                             : Постоянный
Битрейт                                  : 192 Кбит/сек
Каналы                                   : 2 канала
Расположение каналов                     : Front: L R
Частота                                  : 48,0 КГц
Битовая глубина                          : 16 бит
Метод сжатия                             : С потерями
Размер потока                            : 122 Мбайт (8%)
Выравнивание                             : Разделение по промежуткам
Продолжительность промежутка             : 40  мс. (1,00 видеокадр)
Время предзагрузки промежутка            : 500  мс.
Скриншоты:
[NNM-Club.ru]Giuseppe Moscati DVDrip-rus.torrent
 Торрент: Платиновая раздача  Зарегистрирован
 
Скачать


Примагнититься
 Зарегистрирован:   21 Дек 2012 17:53:46
 Размер:   3,14 GB  (
 Рейтинг:   4,9 (Голосов: 49)
 Поблагодарили:   228
 Проверка:   Оформление проверено модератором 23 Дек 2012 23:54:53
Как cкачать  ·  Как раздать  ·  Правильно оформить  ·  Поднять ратио!  
Nicolas7
Стаж: 7 лет 6 мес.
Сообщений: 3
Ratio: 16,694
42%
Великолепный фильм! Особенно интересен, т.к. основан на реальных событиях.
Вот только не понял концовки :незнает: . Если кто-то "постиг" задумку режиссёра - пожалуйста выскажите своё мнение.
Holaf
Стаж: 9 лет 9 мес.
Сообщений: 10
Ratio: 12,416
79.56%
Nicolas7 писал(а): Перейти к сообщению
Великолепный фильм! Особенно интересен, т.к. основан на реальных событиях.
Вот только не понял концовки :незнает: . Если кто-то "постиг" задумку режиссёра - пожалуйста выскажите своё мнение.


Nicolas7,
Джузеппе Москати причислен Католической Церковью к лику святых. А у святых немного всё иначе после смерти, чем у обычных людей. О католиках мало что знаю, а в преданиях Православной Церкви описано не одно явление святых (уже перешедших в лучший мир) земным человекам в телесном облике, по важным поводам, конечно, и по воле Божией.
Можно почитать хотя бы Киево-Печерский патерик, или житие святителя Николая архиепископа Мир Ликийских, будет и интересно, и полезно :подмигивание: .

Добавлено спустя 2 часа 28 минут 52 секунды:

Если прогуглить, то можно получить более подробную информацию об этом чудесном человеке. Вот немного о нём из Википедии:
"Через три года после кончины Москати его тело было перезахоронено в неаполитанской церкви Джезу Нуово 16 ноября 1930 года, спустя ещё 45 лет 16 ноября 1975 года Джузеппе Москати был причислен к лику блаженных. После зафиксированного соответствующей комиссией случая чудесного исцеления от рака неаполитанца Джузеппе Фуско (в видении мать больного наблюдала пришедшего к нему человека в белом халате, в котором затем опознала Москати по фотографии) был инициирован процесс канонизации".
pk2012
Стаж: 8 лет 10 мес.
Сообщений: 167
Ratio: 5,081
Поблагодарили: 1184
100%
russia.gif
Великий человек! Гениальный фильм!

_________________
Не Бог принимает или не принимает человека, а человек принимает или отвергает Бога
Trahikarpus
Стаж: 2 года 10 мес.
Сообщений: 1
60%
Версия сильно урезанная - вырезали кучу частей, целого героя убрали.
Показать сообщения:   
Начать новую тему   Ответить на тему    Торрент-трекер NNM-Club -> Зарубежные сериалы Часовой пояс: GMT + 3
Страница 1 из 1