Классический форум-трекер
canvas not supported
Нас вместе: 4 102 804

Звезда и смерть Хоакина Мурьеты (1982) DVD5


 
 
RSS
Начать новую тему   Ответить на тему    Торрент-трекер NNM-Club -> Театр и Музыкальное видео -> Опера, Балет, Мюзиклы
Автор Сообщение
Stepa56 ®
Модератор Талантов
DG Win&Soft
 
Стаж: 10 лет 5 мес.
Сообщений: 9921
Ratio: 755,222
Поблагодарили: 47080
100%
Откуда: Tver
russia.gif
Звезда и смерть Хоакина Мурьеты (1982) DVD5
Русское название: Звезда и смерть Хоакина Мурьеты
Оригинальное название: Звезда и смерть Хоакина Мурьеты
Год выпуска: 1982
Жанр: Мьюзикл, Драма
Страна: СССР

Описание фильма:
Экранизция рок-оперы Алексея Рыбникова по мотивам пьесы в стихах Павла Грушко. Вместе с другими жителями нищей чилийской деревушки Хоакин Мурьета решает отправиться в далекую Калифорнию на поиски золота. В пути он встречает прекрасную девушку, которая становится его женой. Но счастье влюбленных оказывается недолгим.

Старатели сталкиваются со злобой и жестокостью американцев. Погибает юная подруга Хоакина — и он берется за оружие, чтобы отомстить. Однако ничто не может облегчить его страданий.

Режиссер: Владимир Грамматиков
Актеры: Андрей Харитонов, Алена Беляк, Александр Филиппенко, Эдуард Марцевич, Оксана Бочкова, Сократ Абдукадыров, Семен Чунгак, Адель Аль-Хадад, Элгуджа Гагишвили, Игорь Суровцев, Александр Яковлев, Алексей Михайлов, Юрий Лоза, Константин Кужалиев...

Продолжительность: 01:22:47
Перевод: Отсутствует, Оригинальный, Русский
Язык субтитров: Русский
Вид субтитров: Вшитые, отключаемые


Дата мировой премьеры: 10 мая 1984
Дата выхода DVD релиза: 21 мая 2009

Видеокодек: MPEG-2
Битрейт видео: ~6415 Кбит/сек
Размер кадра: 720х576@1024x576
Качество видео: DVD5 R5
Аудиокодек: AC3
Битрейт аудио: ~384 Кбит/сек (Dolby AC3, 6ch)
Доп.материалы: Создатели, и исполнители.Смотрите на DVD
Title: Haokin.Murrietta.1982.nnm.DVD5
Size: 4.14 Gb ( 4 342 752,00 KBytes ) - DVD-5
Enabled regions: 5

VTS_01 :
Play Length: 00:00:13
Video: PAL 4:3 (720x576) VBR
Audio:
Not specified (Dolby AC3, 6 ch)

VTS_02 :
Play Length: 00:00:30
Video: PAL 16:9 (720x576) VBR, Auto Letterboxed
Audio:
Russian (Dolby AC3, 6 ch)

VTS_03 :
Play Length: 00:00:27
Video: PAL 4:3 (720x576) VBR
Audio:
Russian (Dolby AC3, 2 ch)

VTS_04 :
Play Length: 01:22:47
Video: PAL 16:9 (720x576) VBR, Auto Letterboxed
Audio:
Russian (Dolby AC3, 6 ch)
Subtitles:
Russian
Общее
Полное имя : F:\Кино\Раздачи ННМ\Звезда и смерть\Haokin.Murrietta.1982.nnm.DVD5\VIDEO_TS\VTS_04_2.VOB
Формат : MPEG-PS
Размер файла : 1024 Мбайт
Продолжительность : 20 м.
Режим общего битрейта : Переменный
Общий поток : 6937 Кбит/сек

Видео
Идентификатор : 224 (0xE0)
Формат : MPEG Video
Версия формата : Version 2
Профиль формата : Main@Main
Параметр BVOP формата : Да
Параметр матрицы формата : Выборочная
Параметр GOP формата : M=3, N=15
Продолжительность : 20 м.
Вид битрейта : Переменный
Битрейт : 6415 Кбит/сек
Максимальный битрейт : 9800 Кбит/сек
Ширина : 720 пикселей
Высота : 576 пикселей
Соотношение сторон : 16:9
Частота кадров : 25,000 кадров/сек
Стандарт вещания : PAL
Цветовое пространство : YUV
Субдискретизация насыщенности : 4:2:0
Битовая глубина : 8 бит
Тип развёртки : Чересстрочная
Порядок развёртки : Нижнее поле первое
Метод сжатия : С потерями
Бит/(Пиксели*Кадры) : 0.619
Размер потока : 947 Мбайт (92%)

Аудио
Идентификатор : 189 (0xBD)-128 (0x80)
Формат : AC-3
Формат/Информация : Audio Coding 3
Расширение режима : CM (complete main)
Режим смешивания : DVD-Video
Продолжительность : 20 м.
Вид битрейта : Постоянный
Битрейт : 384 Кбит/сек
Каналы : 6 каналов
Расположение каналов : Front: L C R, Side: L R, LFE
Частота : 48,0 КГц
Битовая глубина : 16 бит
Метод сжатия : С потерями
Задержка видео : -808 мс.
Размер потока : 56,7 Мбайт (6%)

Меню
Скриншоты:







Время раздачи: С 09:00до 24:00 мск
[NNM-Club.ru]_Haokin.Murrietta.1982.nnm.DVD5.torrent
 Торрент: Платиновая раздача  Зарегистрирован
 
Скачать


Примагнититься
 Зарегистрирован:   24 Дек 2012 10:56:46
 Размер:   4,14 GB  (
 Рейтинг:   4,8 (Голосов: 72)
 Поблагодарили:   210
 Проверка:   Оформление проверено модератором 25 Дек 2012 01:10:57
Как cкачать  ·  Как раздать  ·  Правильно оформить  ·  Поднять ратио!  
ya71
Стаж: 11 лет 6 мес.
Сообщений: 101
Ratio: 2,702
100%
Потрясающий фильм по мощнейшей опере Рыбникова!!!
EXTESY
Стаж: 8 лет 9 мес.
Сообщений: 48
Ratio: 57,18
Поблагодарили: 1152
100%
Откуда: Оренбургская обл. г.Оренбург
russia.gif
Ещё учась в училище, мы все с нетерпением ждали, когда нам поставят в рассписание предмет "Эстетика", на уроке котором учитель включит нам свой проигрыватель и поставит пластинку с этой оперой... музыка потрясающая...также вопросы блаженного никого равнодушным не оставят, а наоборот заставят задуматься о смысле бытия...что сказать, красивая опера.
Valyak
Стаж: 10 лет 2 мес.
Сообщений: 1161
Ratio: 23,104
34.3%
Откуда: г. Брянск
ussr.gif
Фильм был с грифом "Дети до 16" и меня туда не пустили, поскольку мне было 15 с половиной.
Показать сообщения:   
Начать новую тему   Ответить на тему    Торрент-трекер NNM-Club -> Театр и Музыкальное видео -> Опера, Балет, Мюзиклы Часовой пояс: GMT + 3
Страница 1 из 1