Классический форум-трекер
canvas not supported
Нас вместе: 4 102 842

Kido Butoden G-Gundam / Mobile Fighter G Gundam / Мобильный воин Джи-ГАНДАМ [1994, TV, 49] DVDRip 480p raw


 
 
RSS
Начать новую тему   Ответить на тему    Торрент-трекер NNM-Club -> Аниме с субтитрами -> Аниме (SD)
Автор Сообщение
loki ®
Стаж: 9 лет 2 мес.
Сообщений: 4729
Ratio: 62,845
Поблагодарили: 37371
100%
Откуда: Днепр
roody.gif

Kido Butoden G-Gundam
Mobile Fighter G Gundam
Мобильный воин Джи-ГАНДАМ

Жанр: пародия, меха, фантастика, приключения
Продолжительность: 49 эп., 24 мин.
Дата премьеры / период выхода: c 01.04.1994 по 31.03.1995
Производство/студия: Sunrise
Автор оригинала: Томино Ёсиюки, Ятатэ Хадзимэ
Режиссер: Имагава Ясухиро
Художник-постановщик: Хигаси Дзюнъити
Композитор: Танака Кохэй
Вокал: Усима Ёсифуми, Иноэ Такэхидэ, Сай Эцуко
Качество видео: DVDRip
Формат видео: AVI
Кодек: XVID (8 bits)
Битрейт видео: ~1465 Kbps, 23,976 fps
Размер кадра: 640x480 (4/3)
Аудио JAP: MP3, 147 kbps, 48,0 KHz, 2 ch
Тип субтитров: Raw
Субтитры: RUS ASS Kornel (ext)
Описание:
Далекое будущее. Большая часть человечества покинула загрязненную Землю ради жизни в космических колониях, названных в честь стран, построивших их - Нео-Англия, Нео-Франия, Нео-Россия...
А для того, чтобы избежать войны между населением колоний, раз в четыре года проводится состязание по "Гандам-борьбе". Пилоты сражаются, зарабатывая для своих стран право властвовать над всеми народами солнечной системы.
Приближается тринадцатый чемпионат. На Землю прибывает пилот Нео-Японии Домон Кашу. Но, кроме победы в чемпионате, он преследует и другую важную цель...
01. The Gundam fight begins! The Gundam that fell to Earth
02. Roar Of The Winning Punch
03. Beat The Dragon Gundam
04. Challenge! The Red Rose Knight
05. Great Escape! A Captive Gundam Fighter
06. Fight, Domon! Earth Is The Ring
07. Prepare To Fight! Desperate Fugitive
08. An Old Grudge: Revenge Of The Space Police
09. Powerful Enemy! Chapman's Heroic Challenge
10. Terror! The Phantom Fighter Appears
11. Reunion In The Falling Rain
12. He's The Undefeated Of The East! Master Asia Appears
13. Big Trouble! Domon VS. Big 5
14. Shocking! Shining Finger Defeated!
15. Warrior's Crest - Goodbye, Shuffle Alliance
16. Ultimate Power And Evil! Rise Of The Devil Gundam
17. Challenge! Mysterious Masked Fighter
18. Steal the Secret! Scheme Of The Beautiful Warriors
19. Fierce Battle! Dragon Gundam VS. Bolt Gundam
20. George, Beat The Nightmare!
21. The Final Battle Approaches! Only 3 Days Away
22. Breakthrough! Warriors' Strong Ties
23. Destined Battle! Domon VS. Devil Gundam
24. Bright New Star! The Birth Of The God Gundam
25. All Fighters Gathered! The Final Battles Begin
26. A New Weapon! Explosive God Finger
27. Hang On, Domon! Triumph Of The Restored Faith
28. Domon Targeted! The Assassin's Staff
29. Running Away! Sai Saici In Love
30. Beautiful Fighter! Dangerous Allenby
31. Dazzling Power Of The Clown! Get Mad, Gundam Maxter
32. Dangerous Trap! Neros Gundam Strikes Back
33. Emissary Of Darkness! Chapman Rises Again
34. Stand Up Domon! Raging Tag Team Match
35. Showdown! Bursting Machinegun Punch
36. A Knight's Pride! Gundam Rose Stolen
37. Sai Saici's New Attack! Blazing Dragon Gundam
38. Domon VS Argo! Charging Bolt Gundam
39. The Ultimate Attack! Duel With Master Asia
40. The Ruthless Fight! Schwarz's Last Match
41. Battle Royale Begins! Devil Gundam Revived
42. Assault Of The Four Heavenly Kings! Soaring Gundam Heaven's Sword
43. Royal Counterattack! Ambush Of The Grand Gundam
44. Schwarz Rests In Grace! Domon's Tearful Attack
45. Farewell Master! Master Asia's Last Breath
46. Rain's Crisis! Return Of The Devil Gundam
47. Devil Colony Activated! Attack Of The Shuffle Alliance
48. Earth's S.O.S.! Gundam Federation Rescue
49. God Gundam's Great Triumph! A Hopeful Future.. Ready, Go!
Код:
Общее
Полное имя                               : Mobile Fighter G Gundam (XviD 640x480 LameVBR) [Raws-4U] - 01.avi
Формат                                   : AVI
Формат/Информация                        : Audio Video Interleave
Размер файла                             : 279 Мбайт
Продолжительность                        : 24 м.
Режим общего битрейта                    : Переменный
Общий поток                              : 1624 Кбит/сек
Название фильма                          : ‹@“®•ђ“¬“`GѓKѓ“ѓ_ѓЂЃ@‘ж1˜b Ѓu‚fѓtѓ@ѓCѓgЉJЋnЃI’n‹…‚Й—Ћ‚ї‚ЅѓKѓ“ѓ_ѓЂЃv
Кодирование произвёл                     : ‚јЃ[€у
Программа кодирования                    : Nandub v1.0rc2
Библиотека кодирования                   : Nandub v1.0rc2
Правообладатель                          : (C)1994 ‘n’КѓGЃ[ѓWѓFѓ“ѓVЃ[ЃEѓTѓ“ѓ‰ѓCѓYЃ^–о—§”ЈЃE•x–м—R—I‹GЃ^ѓeѓЊѓr’©“ъЃE“d’КЃ^ѓoѓ“ѓ_ѓCѓrѓWѓ…ѓAѓ‹
Примечание                               : XviD QB95 LameVBR 128Ѓ`320Kbps

Видео
Идентификатор                            : 0
Формат                                   : MPEG-4 Visual
Параметр BVOP формата                    : Нет
Параметр QPel формата                    : Нет
Параметр GMC формата                     : Без точки перехода
Параметр матрицы формата                 : Default (H.263)
Идентификатор кодека                     : XVID
Идентификатор кодека/Подсказка           : XviD
Продолжительность                        : 24 м.
Битрейт                                  : 1465 Кбит/сек
Ширина                                   : 640 пикселей
Высота                                   : 480 пикселей
Соотношение сторон                       : 4:3
Частота кадров                           : 23,976 кадра/сек
Цветовое пространство                    : YUV
Субдискретизация насыщенности            : 4:2:0
Битовая глубина                          : 8 бит
Тип развёртки                            : Прогрессивная
Метод сжатия                             : С потерями
Бит/(Пиксели*Кадры)                      : 0.199
Размер потока                            : 252 Мбайт (90%)

Аудио
Идентификатор                            : 1
Формат                                   : MPEG Audio
Версия формата                           : Version 1
Профиль формата                          : Layer 3
Идентификатор кодека                     : 55
Идентификатор кодека/Подсказка           : MP3
Продолжительность                        : 24 м.
Вид битрейта                             : Переменный
Битрейт                                  : 147 Кбит/сек
Минимальный битрейт                      : 128 Кбит/сек
Каналы                                   : 2 канала
Частота                                  : 48,0 КГц
Метод сжатия                             : С потерями
Размер потока                            : 25,2 Мбайт (9%)
Выравнивание                             : Соединение по промежуткам
Продолжительность промежутка             : 24  мс. (0,58 видеокадр)
Время предзагрузки промежутка            : 156  мс.
Библиотека кодирования                   : LAME3.92
Настройки программы                      : -m s -V 7 -q 0 -lowpass 13.8 --vbr-old -b 128

Информационные ссылки: Official website || ANN || AniDB || MAL || World Art
Скриншоты:



Вселенная Gundam

Время раздачи: 24/7
[NNM-Club.ru]_Mobile Fighter G Gundam [Raws-4U].torrent
 Торрент: Платиновая раздача  Зарегистрирован
 
Скачать


Примагнититься
 Зарегистрирован:   28 Дек 2012 21:51:34
 Размер:   15,1 GB  (
 Рейтинг:   4,1 (Голосов: 22)
 Поблагодарили:   22
 Проверка:   Оформление проверено модератором 28 Дек 2012 22:59:57
Как cкачать  ·  Как раздать  ·  Правильно оформить  ·  Поднять ратио!  
Показать сообщения:   
Начать новую тему   Ответить на тему    Торрент-трекер NNM-Club -> Аниме с субтитрами -> Аниме (SD) Часовой пояс: GMT + 3
Страница 1 из 1