Классический форум-трекер
canvas not supported
Нас вместе: 4 082 166

Три Мушкетера (Мюзикл) (Д'Артаньян - Владимир Зеленский) (2005) DVD5


 
 
RSS
Начать новую тему   Ответить на тему    Торрент-трекер NNM-Club -> Театр и Музыкальное видео -> Опера, Балет, Мюзиклы
Автор Сообщение
NPGroup ®
Стаж: 7 лет
Сообщений: 17
Ratio: 2,997
Раздал: 1021 GB
Поблагодарили: 1709
100%
ukraine.gif
Три Мушкетера (Мюзикл) (Д'Артаньян - Владимир Зеленский) (2005) DVD5
Жанр: Комедия, Музыка, Семейный

Режиссер: Тина Баркалая
Сценарист: Владимир Зеленский, Борис Шефир, Сергей Шефир
Композитор: Максим Дунаевский
Актеры: Владимир Зеленский, Юрий Стоянов, Амалия Мордвинова, Андрей Данилко, Алена Свиридова, Руслана Писанка, Армен Джигарханян, Станислав Садальский, Виллэ Хаапасало, Владимир Этуш

Описание:
Авторы новой версии «Трех мушкетеров» рискнули рассказать классический сюжет Александр Дюма совершенно неожиданным образом. Трех мушкетеров сделали женщинами, а мушкетерский полк соответственно женский.
Атос (А.Свиридова), Портос (Р.Писанка) и Арамис (А.Ардова) - это три бестии, в которых постоянно прорывается наружу женская натура. Д'Артаньяна (В.Зеленский) связывается с мушкетерами уже не мужская дружба, а скорее отношения старших сестер и наставниц. Он юный, дерзкий, взрывной встречает такую же юную и легкую Констанцию (Ю.Началова). Капитан де Тревиль (А.Джигарханян) - старый бабник, который возглавляет свой женский батальон, главным образом для того, чтобы заниматься интрижками с подчиненными. Конечно же, главным врагом всех героев также стала женщина коварная мадам Решилье (А.Данилко). Никто не знает, каким образом ей досталась власть, но все трепещут от страха! Мимоходом она выпытывает большую тайну Королевы.



Дополнительная информация:
Максим Дунаевский, который в свое время сочинил музыку к фильму Юнгвальда-Хилькевича, с интересом воспринял предложение вернуться к "мушкетериане".
Для мюзикла было специально написано 8 новых песен. Автором текстов выступил давний партнер и друг композитора Юрий Энтин.

В релизе предоставлено содержимое DVD5. При необходимости создать образ рекомендую воспользоваться программами:
UltraISO Premium Edition 9.5.3.2901 или Nero Micro 12.0.02900

Продолжительность: 01:39:00
Перевод: Отсутствует

Видеокодек: MPEG-2
Битрейт видео: ~8500 kb/s VBR
Размер кадра: 720x576
Качество видео: DVD5
Аудиокодек: AC3 2.0
Битрейт аудио: 192 kb/s VBR
Общее
Полное имя : D:\3 myshketera\VTS_04_1.VOB
Формат : MPEG-PS
Размер файла : 1024 Мбайт
Режим общего битрейта : Переменный
Общий поток : 5287 Кбит/сек

Видео
Идентификатор : 224 (0xE0)
Формат : MPEG Video
Версия формата : Version 2
Профиль формата : Main@Main
Параметр BVOP формата : Да
Параметр матрицы формата : Выборочная
Параметр GOP формата : M=3, N=12
Вид битрейта : Переменный
Битрейт : 4990 Кбит/сек
Максимальный битрейт : 8500 Кбит/сек
Ширина : 720 пикселей
Высота : 576 пикселей
Соотношение сторон : 4:3
Частота кадров : 25,000 кадров/сек
Стандарт вещания : PAL
Цветовое пространство : YUV
Субдискретизация насыщенности : 4:2:0
Битовая глубина : 8 бит
Тип развёртки : Чересстрочная
Порядок развёртки : Верхнее поле первое
Метод сжатия : С потерями
Бит/(Пиксели*Кадры) : 0.481
Размер потока : 966 Мбайт (94%)

Аудио
Идентификатор : 189 (0xBD)-128 (0x80)
Формат : AC-3
Формат/Информация : Audio Coding 3
Расширение режима : CM (complete main)
Параметр Endianness формата : Big
Режим смешивания : DVD-Video
Вид битрейта : Постоянный
Битрейт : 192 Кбит/сек
Каналы : 2 канала
Расположение каналов : Front: L R
Частота : 48,0 КГц
Битовая глубина : 16 бит
Метод сжатия : С потерями
Задержка видео : -80 мс.
Размер потока : 37,2 Мбайт (4%)

Меню
Скриншоты:
[NNMClub.to]_3 myshketera.torrent
 Торрент: Платиновая раздача  Зарегистрирован
 
Скачать


Примагнититься
 Зарегистрирован:   02 Сен 2019 12:59:28
 Размер:   4,37 GB  (
 Рейтинг:   3,8 (Голосов: 41)
 Поблагодарили:   182
 Проверка:   Оформление проверено модератором 02 Сен 2019 13:02:14
Как cкачать  ·  Как раздать  ·  Правильно оформить  ·  Поднять ратио!  
Vasikon
Стаж: 9 лет 1 мес.
Сообщений: 75
Ratio: 58,983
Поблагодарили: 108
100%
ussr.gif
По Вашей просьбе Встал на раздачу. Слушал и смотрел с удовольствием.
NorthOn
 
Админ
Стаж: 13 лет 3 мес.
Сообщений: 12959
Ratio: 1075,817
Поблагодарили: 14380
100%
nnm-club.gif
Торрент перерегистрирован в рамках акции Включаем DHT в древних раздачах
Теперь вам нужно его скачать и открыть в торрент-клиенте, указав в качестве места сохранения раздаваемый файл или папку.

_________________
Либо я найду путь, либо проложу его...
Kassiny
Стаж: 8 лет 5 мес.
Сообщений: 127
Ratio: 2,242
100%
ukraine.gif
Юля Началова, помню ее еще по Утренней звезде с Николаевым.

R.I.P.
VAI007
Стаж: 5 лет 10 мес.
Сообщений: 98
Ratio: 3,683
29.67%
ussr.gif
Дюма в гробу перевернулся наверно...
yason2000
Стаж: 8 лет 3 мес.
Сообщений: 184
Ratio: 2,581
Раздал: 1,237 TB
100%
ukraine.gif
VAI007 писал(а): Перейти к сообщению
Дюма в гробу перевернулся наверно...

Он там уже давно как вентилятор, сам виноват - понаписал нетленок
deodatto
Талант
Стаж: 5 лет 2 мес.
Сообщений: 824
Ratio: 2,127
Поблагодарили: 1722
100%
Производство чьё интересно.. Ботсвана ? США ? Иль это Еврофильм ? :)

Отвратительный мюзикл, Имхо. :( А ведь примерно в то же время, были сняты роскошные Золушка, и Женитьба Фигаро.

_________________
Общего у людей только одно - все они очень разные..
Показать сообщения:   
Начать новую тему   Ответить на тему    Торрент-трекер NNM-Club -> Театр и Музыкальное видео -> Опера, Балет, Мюзиклы Часовой пояс: GMT + 3
Страница 1 из 1