Классический форум-трекер
canvas not supported
Нас вместе: 4 094 373

Второй трагический Фантоцци / Il Secondo tragico Fantozzi (1976) DVDRip


 
 
RSS
Начать новую тему   Ответить на тему    Торрент-трекер NNM-Club -> Классика кино и Старые фильмы до 90-х -> Зарубежная Классика (HD*Rip/LQ, DVDRip, SATRip, VHSRip)
Автор Сообщение
SKVSM ®
Покровитель талантов
Uploader 100+
 
Стаж: 9 лет 4 мес.
Сообщений: 1083
Ratio: 297,911
Поблагодарили: 21452
100%
nnm-club.gif
Второй трагический Фантоцци / Il Secondo tragico Fantozzi (1976) DVDRip
Русское название: Второй трагический Фантоцци
Оригинальное название: Il Secondo tragico Fantozzi
Год выпуска: 1976
Жанр: Комедия
Выпущено: Италия / Rizzoli Film S.P.A.
Описание фильма:
Его жена уехала к маме. А он решил устроить мальчишник: друзья, пиво, девушки, танцы. Через три часа пиво кончилось, девушки разделись. А жена вернулась за любимым зонтиком…
Режиссер: Лучиано Салче
Актеры: Паоло Вилладжио, Анна Маццамаура, Джиджи Редер, Уго Болонья, Мауро Вестри, Плинио Фернандо, Антонио Фаа' Ди Бруно, Ньетта Зокки, Паоло Паолони, Джузеппе Анатрелли, Лью Босисио
Продолжительность: 01:44:59
Перевод: Многоголосый закадровый



Дата мировой премьеры: 15 апреля 1976
Дата российской премьеры: 28 октября 2008, «Мастер Тэйп»
Ограничения:
16+
Видеокодек: Xvid
Битрейт видео: ~1800 Кбит/с
Размер кадра: 704 x 384
Качество видео: DVDRip
Аудио: AC3, 2ch, 192 Кбит/с

Сэмпл
General
Complete name : G:\ Il.secondo.tragico.Fantozzi.1976.XviD.DVDRip.avi
Format : AVI
Format/Info : Audio Video Interleave
File size : 1.47 GiB
Duration : 1h 44mn
Overall bit rate : 2 002 Kbps
Writing application : VirtualDubMod 1.5.10.2 (build 2540/release)
Writing library : VirtualDubMod build 2540/release

Video
ID : 0
Format : MPEG-4 Visual
Format profile : Advanced Simple@L5
Format settings, BVOP : Yes
Format settings, QPel : No
Format settings, GMC : No warppoints
Format settings, Matrix : Default (H.263)
Codec ID : XVID
Codec ID/Hint : XviD
Duration : 1h 44mn
Bit rate : 1 800 Kbps
Width : 704 pixels
Height : 384 pixels
Display aspect ratio : 16:9
Frame rate : 25.000 fps
Resolution : 8 bits
Colorimetry : 4:2:0
Scan type : Progressive
Bits/(Pixel*Frame) : 0.266
Stream size : 1.32 GiB (90%)
Writing library : XviD 1.2.1 (UTC 2008-12-04)

Audio
ID : 1
Format : AC-3
Format/Info : Audio Coding 3
Codec ID : 2000
Duration : 1h 44mn
Bit rate mode : Constant
Bit rate : 192 Kbps
Channel(s) : 2 channels
Channel positions : Front: L R
Sampling rate : 48.0 KHz
Stream size : 144 MiB (10%)
Alignment : Split accross interleaves
Interleave, duration : 40 ms (1.00 video frame)
Interleave, preload duration : 500 ms
Скриншоты:


Время раздачи: 24/7 - круглосуточно
[NNM-Club.ru]_Il.secondo.tragico.Fantozzi.1976.XviD.DVDRip.avi.torrent
 Торрент: Платиновая раздача  Зарегистрирован
 
Скачать


Примагнититься
 Зарегистрирован:   03 Янв 2013 14:15:52
 Размер:   1,47 GB  (
 Рейтинг:   4,9 (Голосов: 80)
 Поблагодарили:   266
 Проверка:   Оформление проверено модератором 03 Янв 2013 15:31:19
Как cкачать  ·  Как раздать  ·  Правильно оформить  ·  Поднять ратио!  
SKVSM ®
Покровитель талантов
Uploader 100+
 
Стаж: 9 лет 4 мес.
Сообщений: 1083
Ratio: 297,911
Поблагодарили: 21452
100%
nnm-club.gif
MACT
Стаж: 9 лет 5 мес.
Сообщений: 36
Ratio: 3,457
100%
КЛАССИКА ЖАНРА, КАК Я СМЕЯЛСЯ В СВОЕ ВРЕМЯ)!!!и плюс к етому еще и сюжет и очень интересно!!!
bobvorobei
Стаж: 7 лет 3 мес.
Сообщений: 1
Ratio: 1,192
75.19%
Спасибо,весело!!!
SKVSM ®
Покровитель талантов
Uploader 100+
 
Стаж: 9 лет 4 мес.
Сообщений: 1083
Ratio: 297,911
Поблагодарили: 21452
100%
nnm-club.gif
bobvorobei писал(а): Перейти к сообщению
Спасибо,весело!!!

Всегда пожалуйста.
Diesel88
Стаж: 7 лет 2 мес.
Сообщений: 1573
Ratio: 19,778
100%
ussr.gif
Угарный фильмец,ничего не скажешь.Благодарю!
SKVSM ®
Покровитель талантов
Uploader 100+
 
Стаж: 9 лет 4 мес.
Сообщений: 1083
Ratio: 297,911
Поблагодарили: 21452
100%
nnm-club.gif
Потрошитель писал(а): Перейти к сообщению
Угарный фильмец,ничего не скажешь.Благодарю!

Мне тоже нравится. =)
Показать сообщения:   
Начать новую тему   Ответить на тему    Торрент-трекер NNM-Club -> Классика кино и Старые фильмы до 90-х -> Зарубежная Классика (HD*Rip/LQ, DVDRip, SATRip, VHSRip) Часовой пояс: GMT + 3
Страница 1 из 1