Классический форум-трекер
canvas not supported
Нас вместе: 4 079 203

Сомбреро (1959) DVDRip [H.264]


 
 
RSS
Начать новую тему   Ответить на тему    Торрент-трекер NNM-Club -> Видео -> Отечественные Фильмы для детей
Автор Сообщение
batonchik ®
Куратор Видео
RG Releasers
Котоаплоадер 6000+
 
Стаж: 11 лет 7 мес.
Сообщений: 24996
Ratio: 89K
Раздал: 6,4258 PB
Поблагодарили: 1216928
100%
Откуда: из лесу
ussr.gif
Сомбреро (1959) [H.264] DVDRip
Русское название: Сомбреро
Год выпуска: 1959
Производство: СССР , Киностудия им. М. Горького
Жанр: Детский
Субтитры: Отсутствуют

Режиссёр-постановщик: Тамара Лисициан

Автор сценария: Сергей Михалков
Композитор: Лев Шварц
Оператор-постановщик: Василий Дульцев
Художник-постановщик: Владимир Богомолов
В ролях: Толя Кулаков, Витя Перевалов, Миша Тягунов, Наташа Панина, Людмила Чернышева, Сергей Филиппов, Вадим Грачев, Сергей Корень и др.

Описание фильма:
Лирическая комедия по одноименной пьесе С.Михалкова.
Роль д'Артаньяна в школьном спектакле готовит Шура Тычинкин, но внезапно роль отдают другому. Тогда Шура, чтобы убедить всех в своем таланте, надевает мексиканский костюм и выдает себя за собственного брата, приехавшего из Латинской Америки.

Дата мировой премьеры: 20 сентября 1959
Релиз от:
Продолжительность: 01:03:38
Качество: DVDRip (batonchik)
Видео кодек: MPEG-4 AVC/H.264
Битрейт видео: 2950 Кбит/сек
Размер кадра: 624x480
Аудио: Русский АС-3 2.0 192 Кбит/сек 48,0 КГц 16 бит
Общее
Уникальный идентификатор : 193719261894746336302327710704176816457 (0x91BCF904C0A8AAC287610BEC73856149)
Полное имя : R:\222\Сомбреро (1959) DVDRip.AVC.NNM-CLUB.mkv
Формат : Matroska
Версия формата : Version 4 / Version 2
Размер файла : 1,41 Гбайт
Продолжительность : 1 ч. 4 м.
Общий поток : 3143 Кбит/сек
Название фильма : Сомбреро (1959) DVDRip.AVC.NNM-CLUB
Дата кодирования : UTC 2010-02-22 21:41:31
Программа кодирования : mkvmerge v5.9.0 ('On The Loose') built on Dec 9 2012 15:37:01
Библиотека кодирования : libebml v1.3.0 + libmatroska v1.4.0

Видео
Идентификатор : 1
Формат : AVC
Формат/Информация : Advanced Video Codec
Профиль формата : High@L4.1
Параметр CABAC формата : Да
Параметр ReFrames формата : 10 кадров
Идентификатор кодека : V_MPEG4/ISO/AVC
Продолжительность : 1 ч. 4 м.
Битрейт : 2950 Кбит/сек
Ширина : 624 пикселя
Высота : 480 пикселей
Соотношение сторон : 4:3
Режим частоты кадров : Постоянный
Частота кадров : 25,000 кадров/сек
Цветовое пространство : YUV
Субдискретизация насыщенности : 4:2:0
Битовая глубина : 8 бит
Тип развёртки : Прогрессивная
Бит/(Пиксели*Кадры) : 0.394
Размер потока : 1,30 Гбайт (92%)
Заголовок : Сомбреро (1959) DVDRip.AVC.NNM-CLUB
Библиотека кодирования : x264 core 129 r2230 1cffe9f
Настройки программы : cabac=1 / ref=10 / deblock=1:0:0 / analyse=0x3:0x133 / me=umh / subme=8 / psy=1 / psy_rd=1.00:0.15 / mixed_ref=1 / me_range=24 / chroma_me=1 / trellis=2 / 8x8dct=1 / cqm=0 / deadzone=21,11 / fast_pskip=0 / chroma_qp_offset=-3 / threads=12 / lookahead_threads=2 / sliced_threads=0 / nr=0 / decimate=1 / interlaced=0 / bluray_compat=0 / constrained_intra=0 / bframes=9 / b_pyramid=2 / b_adapt=2 / b_bias=0 / direct=3 / weightb=1 / open_gop=0 / weightp=2 / keyint=250 / keyint_min=23 / scenecut=40 / intra_refresh=0 / rc_lookahead=40 / rc=2pass / mbtree=1 / bitrate=2950 / ratetol=1.0 / qcomp=0.60 / qpmin=10 / qpmax=51 / qpstep=4 / cplxblur=20.0 / qblur=0.5 / ip_ratio=1.40 / aq=1:1.00
Язык : Russian
Default : Да
Forced : Нет
Основные цвета : Generic film

Аудио
Идентификатор : 2
Формат : AC-3
Формат/Информация : Audio Coding 3
Расширение режима : CM (complete main)
Параметр Endianness формата : Big
Идентификатор кодека : A_AC3
Продолжительность : 1 ч. 4 м.
Вид битрейта : Постоянный
Битрейт : 192 Кбит/сек
Каналы : 2 канала
Расположение каналов : Front: L R
Частота : 48,0 КГц
Битовая глубина : 16 бит
Метод сжатия : С потерями
Размер потока : 88,4 Мбайт (6%)
Язык : Russian
Default : Да
Forced : Нет

Меню
00:00:00.000 : ru:Chapter 01
00:08:03.440 : ru:Chapter 02
00:15:55.760 : ru:Chapter 03
00:24:09.600 : ru:Chapter 04
00:31:50.680 : ru:Chapter 05
00:39:51.080 : ru:Chapter 06
00:48:07.160 : ru:Chapter 07
00:55:47.640 : ru:Chapter 08
-----------------

Скриншоты:








Время раздачи: круглогодично

Играю на аккордеоне за "Спасибо"
Sombrero (1959) DVDRip.AVC.NNM-CLUB.mkv.torrent
 Торрент: Платиновая раздача  Зарегистрирован
 
Скачать


Примагнититься
 Зарегистрирован:   05 Янв 2013 13:55:19
 Размер:   1,41 GB  (
 Рейтинг:   4,5 (Голосов: 23)
 Поблагодарили:   83
 Проверка:   Оформление проверено модератором 05 Янв 2013 14:01:41
ПОЖЕРТВОВАТЬ МНЕ НА ЛЕЧЕНИЕ
(поддержка меня и моих релизов)
*******************************
**МОЖНО ЗДЕСЬ!**
*******************************
Как cкачать  ·  Как раздать  ·  Правильно оформить  ·  Поднять ратио!  
Показать сообщения:   
Начать новую тему   Ответить на тему    Торрент-трекер NNM-Club -> Видео -> Отечественные Фильмы для детей Часовой пояс: GMT + 3
Страница 1 из 1