Классический форум-трекер
canvas not supported
Нас вместе: 4 078 895

Наркомовский обоз (2011) DVD9 [4 серии из 4]


 
 
RSS
Начать новую тему   Ответить на тему    Торрент-трекер NNM-Club -> Архив торрентов -> Архив Сериалов и Старого многосерийного кино до 90-х
Автор Сообщение
Alex_Fors ®
Стаж: 9 лет
Сообщений: 387
Ratio: 102,587
Поблагодарили: 18401
100%
portugal.gif
Наркомовский обоз (2011) DVD9 [4 серии из 4]
Русское название: Наркомовский обоз
Производство: Россия
Год выпуска: 2011
Жанр: Драма, Приключения, Военный


Дата российской премьеры: 10 мая 2011
Дата выхода DVD/Blu-Ray релиза: 16 августа 2011, «Lizard Cinema Trade»

Режиссер: Влад Фурман
Актеры: Сергей Маховиков, Ольга Фадеева, Анна Арланова, Ирина Рахманова, Ричард Бондарев, Анатолий Петров, Дарья Баранова, Алексей Дозморов, Агния Кузнецова, Кирилл Новицкий ...

Описание фильма:
1941 год. Только что вышло постановление Комитета Обороны о водочном довольствии для действующей армии.

Старшина Филиппов получает задание: впервые доставить в стрелковую дивизию те самые знаменитые «100 наркомовских грамм». В помощники ему дают 4 девушки-красноармейца, местного старика-проводника Архипа и его внука-подростка Митю. Погрузив на телеги тару, обоз трогается в путь. За несколько часов этой, казалось бы, рутинной тыловой поездки всем им предстоит пройти настоящие военные испытания: не единожды вступить бой, стать свидетелями высокой доблести и подлой трусости, узнать любовь и ревность.

Веселое кокетство девушек со своим старшиной заканчивается уже при первой серьезной бомбежке. Никто из обозников еще не знает, что впереди их ждут прорвавшиеся немецкие мотоциклисты.

Продолжительность: 00:48:56+00:50:20+00:48:45+00:49:11
Качество видео: DVD9
Субтитры: Отсутствуют

Видеокодек: MPEG-2
Битрейт видео: ~5021 kb/s
Размер кадра: 720x576@1024x576 (PAL 16:9) VBR Auto Pan&Scan, Auto Letterboxed
Аудиокодек: AC3, 2 ch
Битрейт аудио: 192 kb/s
СЭМПЛ
Дополнительные материалы: Отсутствуют
Title: Наркомовский обоз(4 серии из 4).2011.DVD9
Size: 7.78 Gb ( 8 159 958,00 KBytes ) - DVD-9
Enabled regions: 1, 2, 3, 4, 5, 6, 7, 8

VTS_01 :
Play Length: 00:00:25+{00:00:25}+{00:00:25}
Video: PAL 4:3 (720x576) VBR
Audio:
Russian (Dolby AC3, 6 ch)
English (Dolby AC3, 6 ch)
English (Dolby AC3, 6 ch)

VTS_02 :
Play Length: 00:48:56
Video: PAL 16:9 (720x576) VBR, Auto Pan&Scan, Auto Letterboxed
Audio:
Russian (Dolby AC3, 2 ch)

VTS_03 :
Play Length: 00:50:20
Video: PAL 16:9 (720x576) VBR, Auto Pan&Scan, Auto Letterboxed
Audio:
Russian (Dolby AC3, 2 ch)

VTS_04 :
Play Length: 00:48:45
Video: PAL 16:9 (720x576) VBR, Auto Pan&Scan, Auto Letterboxed
Audio:
Russian (Dolby AC3, 2 ch)

VTS_05 :
Play Length: 00:49:11
Video: PAL 16:9 (720x576) VBR, Auto Pan&Scan, Auto Letterboxed
Audio:
Russian (Dolby AC3, 2 ch)

* Menus Information *

VIDEO_TS Menu
Video:
PAL 4:3 (720x576) VBR
English Language Unit :
Title Menu

VTS_01 Menu
Video:
PAL 4:3 (720x576) VBR
Audio:
Not specified (Dolby AC3, 2 ch)
English Language Unit :
Root Menu
Chapter (PTT) Menu

VTS_02 Menu
Video:
PAL 4:3 (720x576) VBR
English Language Unit :
Root Menu
Chapter (PTT) Menu

VTS_03 Menu
Video:
PAL 4:3 (720x576) VBR
English Language Unit :
Root Menu
Chapter (PTT) Menu

VTS_04 Menu
Video:
PAL 4:3 (720x576) VBR
English Language Unit :
Root Menu
Chapter (PTT) Menu

VTS_05 Menu
Video:
PAL 4:3 (720x576) VBR
English Language Unit :
Root Menu
Chapter (PTT) Menu
Формат : MPEG-PS
Размер файла : 1024 Мбайт
Продолжительность : 26 м.
Общий поток : 5318 Кбит/сек

Видео
Идентификатор : 224 (0xE0)
Формат : MPEG Video
Версия формата : Version 2
Профиль формата : Main@Main
Параметр BVOP формата : Да
Параметр матрицы формата : Выборочная
Продолжительность : 26 м.
Вид битрейта : Переменный
Битрейт : 5021 Кбит/сек
Максимальный битрейт : 8000 Кбит/сек
Ширина : 720 пикселей
Высота : 576 пикселей
Соотношение сторон : 16:9
Частота кадров : 25,000 кадров/сек
Стандарт вещания : PAL
Цветовое пространство : YUV
Субдискретизация насыщенности : 4:2:0
Битовая глубина : 8 бит
Тип развёртки : Чересстрочная
Порядок развёртки : Верхнее поле первое
Метод сжатия : С потерями
Бит/(Пиксели*Кадры) : 0.484
Размер потока : 966 Мбайт (94%)

Аудио
Идентификатор : 189 (0xBD)-128 (0x80)
Формат : AC-3
Формат/Информация : Audio Coding 3
Расширение режима : CM (complete main)
Режим смешивания : DVD-Video
Продолжительность : 26 м.
Вид битрейта : Постоянный
Битрейт : 192 Кбит/сек
Каналы : 2 канала
Расположение каналов : Front: L R
Частота : 48,0 КГц
Битовая глубина : 16 бит
Метод сжатия : С потерями
Размер потока : 37,0 Мбайт (4%)

Меню
Скриншоты:


Время раздачи: 15:00-20:00
[NNM-Club.ru]_Narkomovskiy oboz(4 serii iz 4).2011.DVD9.torrent
 Торрент: Платиновая раздача  Зарегистрирован
 
Скачать


 Зарегистрирован:   09 Янв 2013 15:42:54
 Размер:   7,78 GB  (
 Рейтинг:   4,4 (Голосов: 39)
 Поблагодарили:   142
 Проверка:   Оформление проверено модератором 10 Янв 2013 00:58:46
Как cкачать  ·  Как раздать  ·  Правильно оформить  ·  Поднять ратио!  
Загрузка...
Fraudy
Стаж: 9 лет 9 мес.
Сообщений: 2178
Ratio: 140,374
Раздал: 51,08 TB
Поблагодарили: 58009
100%
ussr.gif
Неплохой фильм, чем то напоминает по ощущениям "А зори здесь тихие", как то так....
sergei0907
Стаж: 8 лет 9 мес.
Сообщений: 154
Ratio: 9,384
100%
Откуда: Саха Якутия г.Нерюнгри
О люблю такие.Спасибо!Качаем
VikasR
Стаж: 11 лет 11 мес.
Сообщений: 263
Ratio: 8,142
2.49%
Ну да - все спасают самое дорогое: американцы рядового, а русские - водку. =)
GOLDROCK
Стаж: 6 лет 11 мес.
Сообщений: 29
Ratio: 4,034
100%
Откуда: Конотоп
ukraine.gif
Фильм понравился, спасибо! =) =) =)
sergei0907
Стаж: 8 лет 9 мес.
Сообщений: 154
Ratio: 9,384
100%
Откуда: Саха Якутия г.Нерюнгри
Очень понравился,спасибо!
Топик был перенесен из форума Отечественные сериалы в форум Архив Сериалов

Причина переноса: раздающего не было 3 месяца.

Исправил релиз - напиши ЛС DriverV, дав ссылку на релиз.
Если нет ответа 24 часа - нажми на кнопку "Обратить внимание модераторов".
Показать сообщения:   
Начать новую тему   Ответить на тему    Торрент-трекер NNM-Club -> Архив торрентов -> Архив Сериалов и Старого многосерийного кино до 90-х Часовой пояс: GMT + 3
Страница 1 из 1