Классический форум-трекер
canvas not supported
Нас вместе: 4 081 515

Окончательный анализ / Final Analysis (1992) [H.264]DVDRip


 
 
RSS
Начать новую тему   Ответить на тему    Торрент-трекер NNM-Club -> Зарубежное кино -> Зарубежные Фильмы (HD*Rip/LQ, DVDRip, SATRip, VHSRip)
Автор Сообщение
RAIDER99 ®
Стаж: 6 лет 10 мес.
Сообщений: 125
Ratio: 56,69
Поблагодарили: 14071
100%
Откуда: JDL
russia.gif
Окончательный анализ / Final Analysis (1992) DVDRip
Русское название: Окончательный анализ
Оригинальное название: Final Analysis
Год выпуска: 1992
Жанр: Триллер, Драма, Детектив

Описание фильма:
Барр, известный специалист в области психиатрии, очарован ослепительной сестрой своей пациентки. Он начинает ухаживать за ней, не подозревая, что попадает в хитроумную и опасную ловушку…

Его возлюбленная замужем за мафиози и панически боится супруга. Но однажды вечером она убивает благоверного. Доктор помогает замести следы, но вскоре начинает подозревать, что его обманывают…

Режиссер: Фил Джоану
Актеры: Ричард Гир /Richard Gere/, Ким Бейсингер /Kim Basinger/, Ума Турман /Uma Thurman/, Эрик Робертс /Eric Roberts/, Пол Гилфойл /Paul Guilfoyle/, Кит Дэвид /Keith David/, Роберт Харпер /Robert Harper/, Агустин Родригес /Agustin Rodriguez/, Рита Зохар /Rita Zohar/, Джордж Мёрдок /George Murdock/, Ширли Престиа /Shirley Prestia/, Тони Дженаро /Tony Genaro/

Продолжительность: 01:59:35
Перевод: Дублированный
Язык субтитров: отсутствуют



Сэмпл: Ссылка

Видеокодек: MPEG-4 AVC/H.264
Битрейт видео: ~1549 Кбит/сек
Размер кадра: 720х400
Качество видео: DVDRip
Аудиокодек: AC3 2.0
Битрейт аудио: 192 Кбит/сек
Формат : Matroska
Версия формата : Version 2
Размер файла : 1,47 Гбайт
Продолжительность : 1 ч. 59 м.
Общий поток : 1758 Кбит/сек
Название фильма : -=EvG78=-
Дата кодирования : UTC 2012-10-31 12:31:48
Программа кодирования : mkvmerge v5.3.0 ('I could have danced') built on Feb 9 2012 10:38:07
Библиотека кодирования : libebml v1.2.3 + libmatroska v1.3.0

Видео
Идентификатор : 1
Формат : AVC
Формат/Информация : Advanced Video Codec
Профиль формата : High@L4.1
Параметр CABAC формата : Да
Параметр ReFrames формата : 4 кадра
Параметр GOP формата : M=1, N=6
Режим смешивания : Header stripping
Идентификатор кодека : V_MPEG4/ISO/AVC
Продолжительность : 1 ч. 59 м.
Битрейт : 1549 Кбит/сек
Ширина : 720 пикселей
Высота : 400 пикселей
Соотношение сторон : 16:9
Частота кадров : 29,970 кадров/сек
Цветовое пространство : YUV
Субдискретизация насыщенности : 4:2:0
Битовая глубина : 8 бит
Тип развёртки : Прогрессивная
Бит/(Пиксели*Кадры) : 0.179
Размер потока : 1,28 Гбайт (87%)
Библиотека кодирования : x264 core 125 r2200 999b753
Настройки программы : cabac=1 / ref=3 / deblock=1:0:0 / analyse=0x3:0x113 / me=hex / subme=7 / psy=1 / psy_rd=1.00:0.00 / mixed_ref=1 / me_range=16 / chroma_me=1 / trellis=1 / 8x8dct=1 / cqm=0 / deadzone=21,11 / fast_pskip=1 / chroma_qp_offset=-2 / threads=3 / lookahead_threads=1 / sliced_threads=0 / nr=0 / decimate=1 / interlaced=0 / bluray_compat=0 / constrained_intra=0 / bframes=3 / b_pyramid=2 / b_adapt=1 / b_bias=0 / direct=1 / weightb=1 / open_gop=0 / weightp=2 / keyint=300 / keyint_min=29 / scenecut=40 / intra_refresh=0 / rc_lookahead=40 / rc=abr / mbtree=1 / bitrate=1549 / ratetol=1.0 / qcomp=0.60 / qpmin=0 / qpmax=69 / qpstep=4 / ip_ratio=1.40 / aq=1:1.00
Язык : English
Default : Да
Forced : Нет

Аудио
Идентификатор : 2
Формат : AC-3
Формат/Информация : Audio Coding 3
Профиль формата : Dolby Digital
Расширение режима : CM (complete main)
Режим смешивания : Header stripping
Идентификатор кодека : A_AC3
Продолжительность : 1 ч. 59 м.
Вид битрейта : Постоянный
Битрейт : 192 Кбит/сек
Каналы : 2 канала
Расположение каналов : Front: L R
Частота : 48,0 КГц
Битовая глубина : 16 бит
Метод сжатия : С потерями
Размер потока : 164 Мбайт (11%)
Заголовок : Дубляж
Язык : Russian
Default : Да
Forced : Нет
Скриншоты:


Время раздачи: С 12:00 до 18:00
[NNM-Club.ru]_Okonchatel'nyiy analiz. 1992(R.Gir,K.Besenger).mkv.torrent
 Торрент: Платиновая раздача  Зарегистрирован
 
Скачать


Примагнититься
 Зарегистрирован:   11 Янв 2013 20:49:06
 Размер:   1,47 GB  (
 Рейтинг:   4,8 (Голосов: 18)
 Поблагодарили:   101
 Проверка:   Оформление проверено модератором 12 Янв 2013 10:10:21
Как cкачать  ·  Как раздать  ·  Правильно оформить  ·  Поднять ратио!  
batonchik
Куратор Видео
RG Releasers
Котоаплоадер 6000+
 
Стаж: 11 лет 8 мес.
Сообщений: 25034
Ratio: 90K
Раздал: 6,4866 PB
Поблагодарили: 1227572
100%
Откуда: из лесу
ussr.gif
RAIDER99 писал(а):
Настройки программы : cabac=1 / ref=3 / deblock=1:0:0 / analyse=0x3:0x113 / me=hex / subme=7 /

Очень низкие настройки кодека. :огорчение:

_________________
Правила и технический регламент размещения материалов в разделе ВИДЕО
Для благодарностей: Ян. деньги - 41001324015940 Сбербанк - 676280389510659688
sergio1975
Стаж: 8 лет 5 мес.
Сообщений: 1551
Ratio: 6,832
100%
Откуда: Новосибирск
russia.gif
хороший старый фильм
Показать сообщения:   
Начать новую тему   Ответить на тему    Торрент-трекер NNM-Club -> Зарубежное кино -> Зарубежные Фильмы (HD*Rip/LQ, DVDRip, SATRip, VHSRip) Часовой пояс: GMT + 3
Страница 1 из 1