Классический форум-трекер
canvas not supported
Нас вместе: 4 078 888

За тех, кто в море (1947) SATRip


 
 
RSS
Начать новую тему   Ответить на тему    Торрент-трекер NNM-Club -> Классика кино и Старые фильмы до 90-х -> Отечественная Классика (HD*Rip/LQ, DVDRip, SATRip, VHSRip)
Автор Сообщение
Гость ®
За тех, кто в море (1947) SATRip
Жанр: Военный, Драма

Описание:
По одноименной повести Б. Лавренева о моряках, воевавших на торпедных катерах в Великую Отечественную войну.
В погоне за быстрой славой капитан Боровский сообщил командиру отряда торпедных катеров неверные координаты и без его ’помощи’ атаковал противника, что привело к потере катера и гибели команды. Командование дает Боровскому шанс искупить свою вину делом...

Режиссер: Александр Файнциммер
Актеры: Михаил Жаров, Александра Тришко, Дмитрий Павлов, Геннадий Карнович-Валуа, Нинель Мышкова, Эльвира Луценко, Даниил Сагал, Иван Любезнов, Павел Шпрингфельд, Степан Крылов, Георгий Куровский, Михаил Дубрава, Б. Феодосьев, Николай Тюрин.

Продолжительность: 1:17:19



Видеокодек: DivX 5
Битрейт видео: ~1180Kbps
Размер кадра: 576x432
Качество видео: SATRip
Аудиокодек: MP3
Битрейт аудио: mono 64Kbps
Общее
Полное имя : C:\Users\1\Downloads\Za_teh_kto_v_more.avi
Формат : AVI
Формат/Информация : Audio Video Interleave
Размер файла : 694 Мбайт
Продолжительность : 1 ч. 17 м.
Общий поток : 1254 Кбит/сек
Библиотека кодирования : VirtualDub build 24415/release

Видео
Идентификатор : 0
Формат : MPEG-4 Visual
Параметр BVOP формата : Нет
Параметр QPel формата : Нет
Параметр GMC формата : Без точки перехода
Параметр матрицы формата : Default (H.263)
Идентификатор кодека : DX50
Идентификатор кодека/Подсказка : DivX 5
Продолжительность : 1 ч. 17 м.
Битрейт : 1181 Кбит/сек
Ширина : 576 пикселей
Высота : 432 пикселя
Соотношение сторон : 4:3
Частота кадров : 25,000 кадров/сек
Цветовое пространство : YUV
Субдискретизация насыщенности : 4:2:0
Битовая глубина : 8 бит
Тип развёртки : Прогрессивная
Метод сжатия : С потерями
Бит/(Пиксели*Кадры) : 0.190
Размер потока : 653 Мбайт (94%)
Библиотека кодирования : DivX 6.1.1 (UTC 2006-02-01)

Аудио
Идентификатор : 1
Формат : MPEG Audio
Версия формата : Version 1
Профиль формата : Layer 3
Идентификатор кодека : 55
Идентификатор кодека/Подсказка : MP3
Продолжительность : 1 ч. 17 м.
Вид битрейта : Постоянный
Битрейт : 64,0 Кбит/сек
Каналы : 1 канал
Частота : 48,0 КГц
Метод сжатия : С потерями
Размер потока : 35,4 Мбайт (5%)
Выравнивание : Разделение по промежуткам
Продолжительность промежутка : 40 мс. (1,00 видеокадр)
Время предзагрузки промежутка : 500 мс.
Скриншоты:


Время раздачи: 24/7 МОИ РЕЛИЗЫ
[NNM-Club.ru]_Za_teh_kto_v_more.avi.torrent
 Торрент: Платиновая раздача  Зарегистрирован
 
Скачать


Примагнититься
 Зарегистрирован:   12 Янв 2013 23:56:53
 Размер:   694 MB  (
 Рейтинг:   4,6 (Голосов: 57)
 Поблагодарили:   151
 Проверка:   Оформление проверено модератором 12 Янв 2013 23:58:14
Как cкачать  ·  Как раздать  ·  Правильно оформить  ·  Поднять ратио!  
Загрузка...
Показать сообщения:   
Начать новую тему   Ответить на тему    Торрент-трекер NNM-Club -> Классика кино и Старые фильмы до 90-х -> Отечественная Классика (HD*Rip/LQ, DVDRip, SATRip, VHSRip) Часовой пояс: GMT + 3
Страница 1 из 1