Классический форум-трекер
canvas not supported
Нас вместе: 4 094 985

Кирилл Герольд | Самоучитель игры на клавишных [2012] DVD5


 
 
RSS
Начать новую тему   Ответить на тему    Торрент-трекер NNM-Club -> Обучающие видеоматериалы -> Музыка
Автор Сообщение
Zbanez ®
Стаж: 9 лет 2 мес.
Сообщений: 217
Ratio: 512,747
Раздал: 84,79 TB
Поблагодарили: 7872
100%
russia.gif
Кирилл Герольд | Самоучитель игры на клавишных [2012] DVD5
Автор (режиссер): Кирилл Герольд
Название: Самоучитель игры на клавишных
Год выпуска: 2012
Жанр: Видео школа

Описание:
Перед вами самый простой и понятный самоучитель игры на фортепиано. Теперь нет необходимости на протяжении семи лет посещать музыкальную школу или корить родителей и себя за то, что так и не получили музыкального образования. Книга и видеокурс станут вашими личными преподавателями: вы сможете читать ноты, научитесь играть одной, а потом и двумя руками, исполните не только "Собачий вальс", но и удивите окружающих самыми разнообразными мелодиями и песнями.
Книга и видеокурс разбиты на уроки, которые ведет опытный педагог — просто, наглядно и увлекательно! Дерзайте, у вас все получится!

Качество видео: DVD5
Продолжительность: 00:58:10
Видеокодек: MPEG-2
Битрейт видео: ~4500 kb/s, 25 FPS
Размер кадра: 720 х 576
Аудиокодек: PCM, 2.0
Битрейт аудио: 1536 kb/s

Отсутствуют дополнительные бонусы, субтитры, звуковые дорожки.
Книга в PDF
Код:

General
Format                           : MPEG-PS
File size                        : 977 MiB
Duration                         : 2mn 16s
Overall bit rate mode            : Variable
Overall bit rate                 : 60.1 Mbps

Video
ID                               : 224 (0xE0)
Format                           : MPEG Video
Format version                   : Version 2
Format profile                   : Main@Main
Format settings, BVOP            : Yes
Format settings, Matrix          : Default
Format settings, GOP             : M=3, N=12
Duration                         : 2mn 16s
Bit rate mode                    : Variable
Bit rate                         : 57.4 Mbps
Maximum bit rate                 : 7 000 Kbps
Width                            : 720 pixels
Height                           : 576 pixels
Display aspect ratio             : 4:3
Frame rate                       : 25.000 fps
Standard                         : PAL
Color space                      : YUV
Chroma subsampling               : 4:2:0
Bit depth                        : 8 bits
Scan type                        : Interlaced
Scan order                       : Bottom Field First
Compression mode                 : Lossy
Bits/(Pixel*Frame)               : 5.534
Stream size                      : 932 MiB (95%)
Color primaries                  : BT.470-2 System B, BT.470-2 System G
Transfer characteristics         : BT.470-2 System B, BT.470-2 System G
Matrix coefficients              : BT.470-2 System B, BT.470-2 System G

Audio
ID                               : 189 (0xBD)-160 (0xA0)
Format                           : PCM
Format settings, Endianness      : Big
Format settings, Sign            : Signed
Muxing mode                      : DVD-Video
Duration                         : 2mn 16s
Bit rate mode                    : Constant
Bit rate                         : 1 536 Kbps
Channel(s)                       : 2 channels
Channel positions                : Front: L R
Sampling rate                    : 48.0 KHz
Bit depth                        : 16 bits
Delay relative to video          : -374ms
Stream size                      : 25.0 MiB (3%)
Код:

Title: Piter
Size: 3.12 Gb ( 3 268 923 KBytes ) - DVD-5
Enabled regions: 1, 2, 3, 4, 5, 6, 7, 8

VTS_01 :
  Play Length: 00:00:28+00:03:06+00:09:46+00:00:54+00:04:37+00:05:08+00:04:28+00:01:59+00:10:12+00:05:37+00:03:28+00:08:58
  Video: PAL 4:3 (720x576) VBR
  Audio:
      Not specified (LinearPCM, 2 ch)

Menu Video:
      PAL 4:3 (720x576) VBR
Menu Subtitles:
      Not specified
Menu English Language Unit :
      Root Menu
      Audio Menu
      Angle menu
Audio #1: LPCM, Delay = 0 mSec
Скриншоты:

Время раздачи: с 18:00 до 23:00
[NNM-Club.ru]_K.Gerol'd - Samouchitel' igryi na klavishnyih.torrent
 Торрент: Платиновая раздача  Зарегистрирован
 
Скачать


Примагнититься
 Зарегистрирован:   20 Янв 2013 18:38:43
 Размер:   3,12 GB  (
 Рейтинг:   4,7 (Голосов: 79)
 Поблагодарили:   316
 Проверка:   Оформление проверено модератором 22 Янв 2013 07:30:39
Как cкачать  ·  Как раздать  ·  Правильно оформить  ·  Поднять ратио!  
karantino
Стаж: 8 лет 9 мес.
Сообщений: 2
Ratio: 7,897
0%
Уважаемый Zbanez ®, спасибо за раздачу! Но что у Вас за посторонний файл Thumbs.db ? Файлов с таким именем в спецификации формата DVD-video не предусмотрено. Вероятно, он появился и остался в результате обработки исходного DVD-диска программой-копировщиком.
Zbanez ®
Стаж: 9 лет 2 мес.
Сообщений: 217
Ratio: 512,747
Раздал: 84,79 TB
Поблагодарили: 7872
100%
russia.gif
Уважаемый, karantino, вероятно, я не пользовался программой обработки DVD, а просто скопировал содержимое диска на хард и выложил... :смущение: :D
Ни весом, ни своим содержимым этот файл не мешает, но всегда можно удалить его, если не нужен)

_________________
yuvutu
Стаж: 11 лет
Сообщений: 79
Ratio: 3,315
7.34%
russia.gif
Насмешили.:-) Это файл базы изображений Windows. Она сознает его в любой папке с изображениями, индексирует для предпросмотра эскизов в папках при открытии. Откройте любую папку с фото на ваших компъютерах, там будет лежать этот файл. Если мешает, удалите. Система создаст его заново.:-)
Zbanez ®
Стаж: 9 лет 2 мес.
Сообщений: 217
Ratio: 512,747
Раздал: 84,79 TB
Поблагодарили: 7872
100%
russia.gif
yuvutu писал(а): Перейти к сообщению
Насмешили.:-) Это файл базы изображений Windows. Она сознает его в любой папке с изображениями, индексирует для предпросмотра эскизов в папках при открытии. Откройте любую папку с фото на ваших компъютерах, там будет лежать этот файл. Если мешает, удалите. Система создаст его заново.:-)

Разумеется, если в настройках стоит отображение системных и скрытых файлов :подмигивание: Хотя можно и через вин-рар все это дело увидеть...

_________________
Показать сообщения:   
Начать новую тему   Ответить на тему    Торрент-трекер NNM-Club -> Обучающие видеоматериалы -> Музыка Часовой пояс: GMT + 3
Страница 1 из 1