Классический форум-трекер
canvas not supported
Нас вместе: 4 082 089

Рождественская история / A Christmas Carol (2009) BDRip [1080p] [Вертикальная анаморфная стереопара 3D]


 
 
RSS
Начать новую тему   Ответить на тему    Торрент-трекер NNM-Club -> Мультфильмы -> Зарубежные Мультфильмы (3D)
Автор Сообщение
igor nisan ®
RG Всё лучшее - детям!
 
Стаж: 8 лет 1 мес.
Сообщений: 740
Ratio: 50,7
Поблагодарили: 98035
100%
ukraine.gif
Рождественская история / A Christmas Carol (2009) BDRip
Русское название: Рождественская история
Оригинальное название: A Christmas Carol
Год выпуска: 2009
Жанр: Мультфильм, Фэнтези, Драма, Комедия, Семейный

Описание:
Это викторианская поучительная история о старом и ожесточившемся скупердяе Эбенезере Скрудже, который в течение одной ночи переживает испытание глубокого очищения. Мистер Скрудж — финансист/денежный меняла, который посвятил всю свою жизнь накоплению богатства. Он презирает всё, кроме денег, включая дружбу, любовь и рождественские праздники.

Режиссер: Роберт Земекис
Персонажи: Джим Керри, Гари Олдман, Колин Фёрт, Кэри Элвис, Робин Райт, Боб Хоскинс, Стив Валентайн, Дэрил Сабара, Сэйдж Райан, Эмбер Гейни Миде
Роли дублировали: Александр Филиппенко, Андрей Лёвин, Вадим Романов, Максим Сергеев, Юрий Лазарев
Продолжительность: 01:35:48
Перевод: Дублированный



Дата мировой премьеры: 3 ноября 2009
Дата российской премьеры: 19 ноября 2009, «BVSPR Disney»
Дата выхода DVD релиза: 9 ноября 2010, «Уолт Дисней Компани СНГ»
Дата выхода BLU-RAY релиза: 9 ноября 2010, «Уолт Дисней Компани СНГ»

Видеокодек: MPEG-4 AVC/H.264
Битрейт видео: ~12,0 Мбит/сек
Размер кадра: 1920x1080
Качество видео: BDRip
Аудио №1: AC3 5.1 640 kbps - Русский
Аудио №2: AC3 5.1 640 kbps - Украинский
Аудио №3: AC3 5.1 640 kbps - Английский

Общее
Уникальный идентификатор : 189741301182441290305522172070805896183 (0x8EBED869BCCC4D0081E686C28067FBF7)
Полное имя : H:\my films\A_CHRISTMAS_CAROL_3D.mkv
Формат : Matroska
Версия формата : Version 4 / Version 2
Размер файла : 9,47 Гбайт
Продолжительность : 1 ч. 35 м.
Общий поток : 14,2 Мбит/сек
Название фильма : A_CHRISTMAS_CAROL_3D_crop_over/under
Дата кодирования : UTC 2010-02-22 21:41:31
Программа кодирования : mkvmerge v5.9.0 ('On The Loose') built on Dec 9 2012 15:37:01
Библиотека кодирования : libebml v1.3.0 + libmatroska v1.4.0

Видео
Идентификатор : 1
Формат : AVC
Формат/Информация : Advanced Video Codec
Профиль формата : High@L4.1
Параметр CABAC формата : Да
Параметр ReFrames формата : 4 кадра
Режим смешивания : Header stripping
Идентификатор кодека : V_MPEG4/ISO/AVC
Продолжительность : 1 ч. 35 м.
Битрейт : 12,0 Мбит/сек
Ширина : 1920 пикселей
Высота : 1080 пикселей
Соотношение сторон : 16:9
Режим частоты кадров : Постоянный
Частота кадров : 23,976 кадра/сек
Цветовое пространство : YUV
Субдискретизация насыщенности : 4:2:0
Битовая глубина : 8 бит
Тип развёртки : Прогрессивная
Бит/(Пиксели*Кадры) : 0.241
Размер потока : 8,00 Гбайт (84%)
Заголовок : rip by I/N
Библиотека кодирования : x264 core 128 r2216M 198a7ea
Настройки программы : cabac=1 / ref=4 / deblock=1:-3:-3 / analyse=0x3:0x133 / me=umh / subme=7 / psy=1 / psy_rd=1.00:0.10 / mixed_ref=1 / me_range=32 / chroma_me=1 / trellis=2 / 8x8dct=1 / cqm=1 / deadzone=21,11 / fast_pskip=1 / chroma_qp_offset=-3 / threads=4 / lookahead_threads=1 / sliced_threads=0 / nr=0 / decimate=1 / interlaced=0 / bluray_compat=0 / constrained_intra=0 / bframes=4 / b_pyramid=2 / b_adapt=2 / b_bias=0 / direct=2 / weightb=1 / open_gop=0 / weightp=2 / keyint=12 / keyint_min=2 / scenecut=60 / intra_refresh=0 / rc_lookahead=17 / rc=crf / mbtree=1 / crf=16.0 / qcomp=0.60 / qpmin=10 / qpmax=60 / qpstep=6 / vbv_maxrate=40000 / vbv_bufsize=30000 / crf_max=30.0 / nal_hrd=none / ip_ratio=1.40 / aq=1:0.70
Default : Да
Forced : Нет

Аудио #1
Идентификатор : 2
Формат : AC-3
Формат/Информация : Audio Coding 3
Расширение режима : CM (complete main)
Параметр Endianness формата : Big
Режим смешивания : Header stripping
Идентификатор кодека : A_AC3
Продолжительность : 1 ч. 35 м.
Вид битрейта : Постоянный
Битрейт : 640 Кбит/сек
Каналы : 6 каналов
Расположение каналов : Front: L C R, Side: L R, LFE
Частота : 48,0 КГц
Битовая глубина : 16 бит
Метод сжатия : С потерями
Размер потока : 439 Мбайт (5%)
Язык : Russian
Default : Да
Forced : Нет

Аудио #2
Идентификатор : 3
Формат : AC-3
Формат/Информация : Audio Coding 3
Расширение режима : CM (complete main)
Параметр Endianness формата : Big
Режим смешивания : Header stripping
Идентификатор кодека : A_AC3
Продолжительность : 1 ч. 35 м.
Вид битрейта : Постоянный
Битрейт : 640 Кбит/сек
Каналы : 6 каналов
Расположение каналов : Front: L C R, Side: L R, LFE
Частота : 48,0 КГц
Битовая глубина : 16 бит
Метод сжатия : С потерями
Размер потока : 439 Мбайт (5%)
Язык : Ukrainian
Default : Нет
Forced : Нет

Аудио #3
Идентификатор : 4
Формат : AC-3
Формат/Информация : Audio Coding 3
Расширение режима : CM (complete main)
Параметр Endianness формата : Big
Режим смешивания : Header stripping
Идентификатор кодека : A_AC3
Продолжительность : 1 ч. 35 м.
Вид битрейта : Постоянный
Битрейт : 640 Кбит/сек
Каналы : 6 каналов
Расположение каналов : Front: L C R, Side: L R, LFE
Частота : 48,0 КГц
Битовая глубина : 16 бит
Метод сжатия : С потерями
Размер потока : 439 Мбайт (5%)
Язык : English
Default : Нет
Forced : Нет

Меню
00:00:00.000 : en:(01)00:00:00:000
00:07:39.459 : en:(02)00:07:39:459
00:16:04.046 : en:(03)00:16:04:046
00:29:14.752 : en:(04)00:29:14:752
00:37:13.230 : en:(05)00:37:13:230
00:41:04.461 : en:(06)00:41:04:461
00:44:54.274 : en:(07)00:44:54:274
00:57:07.090 : en:(08)00:57:07:090
01:01:44.325 : en:(09)01:01:44:325
01:08:41.951 : en:(10)01:08:41:951
01:11:08.013 : en:(11)01:11:08:013
01:16:13.568 : en:(12)01:16:13:568
01:19:31.766 : en:(13)01:19:31:766
01:25:21.866 : en:(14)01:25:21:866
01:27:20.526 : en:(15)01:27:20:526
01:30:19.413 : en:(16)01:30:19:413
01:35:48.117 : en:(17)01:35:48:117
Проверено на встроенном плейере ТВ Samsung-D6500
Скриншоты:


Справа и слева у видеоряда обрезано по 248р, что дает возможность просмотра на полный экран (без черных полос) на телевизорах с соотношением сторон 16:9 без изменения пропорций. На мой взгляд плюсы данных рипов- это более глубокое восприятие 3D-эффектов (конечно там где они есть) К минусам отнесу- вынужденное обрезание кадра по бокам. Так-что господа- выбор за вами! Всем приятного просмотра!
Рождественская история на NNm-club
Время раздачи: 24/7 - круглосуточно до 15 скачавших
[NNM-Club.ru]_A_CHRISTMAS_CAROL_3D.mkv.torrent
 Торрент: Платиновая раздача  Зарегистрирован
 
Скачать


Примагнититься
 Зарегистрирован:   22 Янв 2013 12:05:00
 Размер:   9,47 GB  (
 Рейтинг:   4,9 (Голосов: 57)
 Поблагодарили:   235
 Проверка:   Оформление проверено модератором 22 Янв 2013 13:19:21
Как cкачать  ·  Как раздать  ·  Правильно оформить  ·  Поднять ратио!  
proval76
Стаж: 7 лет 4 мес.
Сообщений: 1
Ratio: 2,276
100%
Помогите решить проблему-не могу запустить этот фильм!У меня стоит проигрыватель TotalMedia Theatre 5, при запуске фильма слетает разрешение экрана, и проигрыватель просит установить wmp9 и выше...

Добавлено спустя 52 минуты 16 секунд:

Проблема решена, установила другой плеер -KMP-и все работает :)
Dedunya
Стаж: 11 лет 1 мес.
Сообщений: 96
Ratio: 2,024
100%
russia.gif
дайте скорости пожалуйста!
wwwVladimir2012
Стаж: 7 лет 2 мес.
Сообщений: 2
Ratio: 1214,29
4.55%
А как его смотреть? Нужны очки?
wifim
Стаж: 6 лет 5 мес.
Сообщений: 67
Ratio: 1,082
2.45%
А зачем очки, это же 3 D ! :D
Bim-Bom
Стаж: 10 лет
Сообщений: 266
Ratio: 8,573
18.94%
помогите с раздачей !
Показать сообщения:   
Начать новую тему   Ответить на тему    Торрент-трекер NNM-Club -> Мультфильмы -> Зарубежные Мультфильмы (3D) Часовой пояс: GMT + 3
Страница 1 из 1